  0
SECTION
  2
HEADER
  9
$ACADVER
  1
AC1009
  9
$INSBASE
 10
0.0
 20
0.0
 30
0.0
  9
$EXTMIN
 10
25.430890531100001
 20
37.055921052599999
 30
0.0
  9
$EXTMAX
 10
385.6578404078146
 20
261.78794666975318
 30
0.0
  9
$LIMMIN
 10
0.0
 20
0.0
  9
$LIMMAX
 10
420.0
 20
297.0
  9
$ORTHOMODE
 70
     1
  9
$REGENMODE
 70
     1
  9
$FILLMODE
 70
     1
  9
$QTEXTMODE
 70
     0
  9
$MIRRTEXT
 70
     1
  9
$DRAGMODE
 70
     2
  9
$LTSCALE
 40
23.100000000000001
  9
$OSMODE
 70
     1
  9
$ATTMODE
 70
     1
  9
$TEXTSIZE
 40
0.0
  9
$TRACEWID
 40
0.05
  9
$TEXTSTYLE
  7
STANDARD
  9
$CLAYER
  8
0
  9
$CELTYPE
  6
BYLAYER
  9
$CECOLOR
 62
   256
  9
$DIMSCALE
 40
1.0
  9
$DIMASZ
 40
5.0
  9
$DIMEXO
 40
2.625
  9
$DIMDLI
 40
15.960000000000001
  9
$DIMRND
 40
0.0
  9
$DIMDLE
 40
0.0
  9
$DIMEXE
 40
7.5599999999999987
  9
$DIMTP
 40
0.0
  9
$DIMTM
 40
0.0
  9
$DIMTXT
 40
4.74609375
  9
$DIMCEN
 40
3.7799999999999989
  9
$DIMTSZ
 40
0.0
  9
$DIMTOL
 70
     0
  9
$DIMLIM
 70
     0
  9
$DIMTIH
 70
     1
  9
$DIMTOH
 70
     1
  9
$DIMSE1
 70
     0
  9
$DIMSE2
 70
     0
  9
$DIMTAD
 70
     0
  9
$DIMZIN
 70
     0
  9
$DIMBLK
  1

  9
$DIMASO
 70
     1
  9
$DIMSHO
 70
     1
  9
$DIMPOST
  1

  9
$DIMAPOST
  1

  9
$DIMALT
 70
     0
  9
$DIMALTD
 70
     2
  9
$DIMALTF
 40
25.399999999999999
  9
$DIMLFAC
 40
1.0
  9
$DIMTOFL
 70
     0
  9
$DIMTVP
 40
0.0
  9
$DIMTIX
 70
     0
  9
$DIMSOXD
 70
     0
  9
$DIMSAH
 70
     0
  9
$DIMBLK1
  1

  9
$DIMBLK2
  1

  9
$DIMSTYLE
  2
STANDARD
  9
$DIMCLRD
 70
     0
  9
$DIMCLRE
 70
     0
  9
$DIMCLRT
 70
     0
  9
$DIMTFAC
 40
1.0
  9
$DIMGAP
 40
0.09
  9
$LUNITS
 70
     2
  9
$LUPREC
 70
     4
  9
$SKETCHINC
 40
0.1
  9
$FILLETRAD
 40
12.0
  9
$AUNITS
 70
     0
  9
$AUPREC
 70
     0
  9
$MENU
  1
acad
  9
$ELEVATION
 40
0.0
  9
$PELEVATION
 40
0.0
  9
$THICKNESS
 40
0.0
  9
$LIMCHECK
 70
     0
  9
$BLIPMODE
 70
     0
  9
$CHAMFERA
 40
0.0
  9
$CHAMFERB
 40
0.0
  9
$SKPOLY
 70
     0
  9
$TDCREATE
 40
2451481.5705625121
  9
$TDUPDATE
 40
2451491.5976763889
  9
$TDINDWG
 40
0.0422249884
  9
$TDUSRTIMER
 40
0.0422249884
  9
$USRTIMER
 70
     1
  9
$ANGBASE
 50
0.0
  9
$ANGDIR
 70
     0
  9
$PDMODE
 70
     0
  9
$PDSIZE
 40
0.0
  9
$PLINEWID
 40
0.5
  9
$COORDS
 70
     1
  9
$SPLFRAME
 70
     0
  9
$SPLINETYPE
 70
     6
  9
$SPLINESEGS
 70
     8
  9
$ATTDIA
 70
     0
  9
$ATTREQ
 70
     1
  9
$HANDLING
 70
  4097
  9
$HANDSEED
  5
395
  9
$SURFTAB1
 70
     6
  9
$SURFTAB2
 70
     6
  9
$SURFTYPE
 70
     6
  9
$SURFU
 70
     6
  9
$SURFV
 70
     6
  9
$UCSNAME
  2

  9
$UCSORG
 10
0.0
 20
0.0
 30
0.0
  9
$UCSXDIR
 10
1.0
 20
0.0
 30
0.0
  9
$UCSYDIR
 10
0.0
 20
1.0
 30
0.0
  9
$PUCSNAME
  2

  9
$PUCSORG
 10
0.0
 20
0.0
 30
0.0
  9
$PUCSXDIR
 10
1.0
 20
0.0
 30
0.0
  9
$PUCSYDIR
 10
0.0
 20
1.0
 30
0.0
  9
$USERI1
 70
     0
  9
$USERI2
 70
     0
  9
$USERI3
 70
     0
  9
$USERI4
 70
     0
  9
$USERI5
 70
     0
  9
$USERR1
 40
0.0
  9
$USERR2
 40
0.0
  9
$USERR3
 40
0.0
  9
$USERR4
 40
0.0
  9
$USERR5
 40
0.0
  9
$WORLDVIEW
 70
     1
  9
$SHADEDGE
 70
     3
  9
$SHADEDIF
 70
    70
  9
$TILEMODE
 70
     1
  9
$MAXACTVP
 70
    16
  9
$PLIMCHECK
 70
     0
  9
$PEXTMIN
 10
1.0000000000000000E+020
 20
1.0000000000000000E+020
 30
1.0000000000000000E+020
  9
$PEXTMAX
 10
-1.0000000000000000E+020
 20
-1.0000000000000000E+020
 30
-1.0000000000000000E+020
  9
$PLIMMIN
 10
0.0
 20
0.0
  9
$PLIMMAX
 10
12.0
 20
9.0
  9
$UNITMODE
 70
     0
  9
$VISRETAIN
 70
     0
  9
$PLINEGEN
 70
     1
  9
$PSLTSCALE
 70
     0
  0
ENDSEC
  0
SECTION
  2
TABLES
  0
TABLE
  2
VPORT
 70
     3
  0
VPORT
  2
*ACTIVE
 70
     0
 10
0.0
 20
0.0
 11
1.0
 21
1.0
 12
203.55075076065731
 22
156.74025017422881
 13
0.0
 23
0.0
 14
1.0
 24
1.0
 15
0.0
 25
0.0
 16
0.0
 26
0.0
 36
1.0
 17
0.0
 27
0.0
 37
0.0
 40
256.55377154299578
 41
1.6549789621318369
 42
50.0
 43
0.0
 44
0.0
 50
0.0
 51
0.0
 71
     0
 72
   100
 73
     1
 74
     1
 75
     0
 76
     0
 77
     0
 78
     0
  0
ENDTAB
  0
TABLE
  2
LTYPE
 70
     6
  0
LTYPE
  2
CONTINUOUS
 70
     0
  3
Solid line
 72
    65
 73
     0
 40
0.0
  0
LTYPE
  2
CENTER
 70
     0
  3
____ _ ____ _ ____ _ ____ _ ____ _ ____ _ ____
 72
    65
 73
     4
 40
0.6
 49
0.375
 49
-0.075
 49
0.075
 49
-0.075
  0
LTYPE
  2
HIDDEN
 70
     0
  3
- - - - - - - - - - - - - - - - - - - -
 72
    65
 73
     2
 40
0.2
 49
0.1
 49
-0.1
  0
LTYPE
  2
PHANTOM
 70
     0
  3
_____ _ _ _____ _ _ _____ _ _ _____
 72
    65
 73
     6
 40
0.8
 49
0.45
 49
-0.05
 49
0.1
 49
-0.05
 49
0.1
 49
-0.05
  0
LTYPE
  2
DOT
 70
     0
  3
. . . . . . . . . . . . . . . . . . . .
 72
    65
 73
     2
 40
0.2
 49
0.1
 49
-0.1
  0
LTYPE
  2
DASHED
 70
     0
  3
- - - - - - - - - - - - - - - - - - - -
 72
    65
 73
     2
 40
0.2
 49
0.1
 49
-0.1
  0
ENDTAB
  0
TABLE
  2
LAYER
 70
     7
  0
LAYER
  2
0
 70
     0
 62
     7
  6
CONTINUOUS
  0
LAYER
  2
DEFAULT_1
 70
     0
 62
    -7
  6
CENTER
  0
LAYER
  2
DEFAULT_2
 70
     0
 62
    -8
  6
HIDDEN
  0
LAYER
  2
DEFAULT_3
 70
     0
 62
    -7
  6
PHANTOM
  0
LAYER
  2
DEFPOINTS
 70
     0
 62
    -7
  6
CONTINUOUS
  0
LAYER
  2
TOP_TAPE
 70
     0
 62
     7
  6
CONTINUOUS
  0
LAYER
  2
BOTTOM_TAPE
 70
     0
 62
     7
  6
CONTINUOUS
  0
ENDTAB
  0
TABLE
  2
STYLE
 70
     1
  0
STYLE
  2
STANDARD
 70
     0
 40
0.0
 41
1.0
 50
0.0
 71
     0
 42
0.0
  3
txt
  4

  0
ENDTAB
  0
TABLE
  2
VIEW
 70
     0
  0
ENDTAB
  0
TABLE
  2
UCS
 70
     0
  0
ENDTAB
  0
TABLE
  2
APPID
 70
     1
  0
APPID
  2
ACAD
 70
     0
  0
ENDTAB
  0
TABLE
  2
DIMSTYLE
 70
     1
  0
DIMSTYLE
  2
STANDARD
 70
     0
  3

  4

  5

  6

  7

 40
1.0
 41
5.0
 42
2.625
 43
15.960000000000001
 44
7.5599999999999987
 45
0.0
 46
0.0
 47
0.0
 48
0.0
140
4.74609375
141
3.7799999999999989
142
0.0
143
25.399999999999999
144
1.0
145
0.0
146
1.0
147
0.09
 71
     0
 72
     0
 73
     1
 74
     1
 75
     0
 76
     0
 77
     0
 78
     0
170
     0
171
     2
172
     0
173
     0
174
     0
175
     0
176
     0
177
     0
178
     0
  0
ENDTAB
  0
ENDSEC
  0
SECTION
  2
BLOCKS
  0
BLOCK
  8
0
  2
$MODEL_SPACE
 70
     0
 10
0.0
 20
0.0
 30
0.0
  3
$MODEL_SPACE
  1

  0
ENDBLK
  5
1B0
  8
0
  0
BLOCK
 67
     1
  8
0
  2
$PAPER_SPACE
 70
     0
 10
0.0
 20
0.0
 30
0.0
  3
$PAPER_SPACE
  1

  0
ENDBLK
  5
1AE
 67
     1
  8
0
  0
BLOCK
  8
0
  6
BYBLOCK
 62
     2
  2
*D0
 70
     1
 10
0.0
 20
0.0
 30
0.0
  3
*D0
  1

  0
TEXT
  5
30
  8
0
  6
BYBLOCK
 62
     2
 10
223.88815958550001
 20
180.8546652924999
 30
0.0
 40
4.0
  1
21.00
 50
83.423268900500418
 41
1.1999999999995981
 72
     5
 11
225.72069900219989
 21
196.74937508179991
 31
0.0
  0
LINE
  5
32
  8
0
  6
BYBLOCK
 62
     2
 10
230.40308201799991
 20
145.60793162909991
 30
0.0
 11
217.97640976900001
 21
147.04063263570001
 31
0.0
  0
LINE
  5
33
  8
0
  6
BYBLOCK
 62
     2
 10
232.8082900023999
 20
166.4697382276
 30
0.0
 11
220.38161775340001
 21
167.90243923409989
 31
0.0
  0
LINE
  5
34
  8
0
  6
BYBLOCK
 62
     2
 10
220.95666785450001
 20
146.697031495
 30
0.0
 11
222.15927184669991
 21
157.1279347942999
 31
0.0
  0
LINE
  5
35
  8
0
  6
BYBLOCK
 62
     2
 10
223.36187583889989
 20
167.5588380934999
 30
0.0
 11
222.15927184669991
 21
157.1279347942999
 31
0.0
  0
LINE
  5
36
  8
0
  6
BYBLOCK
 62
     2
 10
222.15927184669991
 20
157.1279347942999
 30
0.0
 11
226.714118364
 21
196.6348413682999
 31
0.0
  0
SOLID
  5
37
  8
0
  6
BYBLOCK
 62
     2
 10
222.3240719117
 20
151.5725013334
 30
0.0
 11
220.73460093279991
 21
151.75575527500001
 31
0.0
 12
220.95666785450001
 22
146.697031495
 32
0.0
 13
220.95666785450001
 23
146.697031495
 33
0.0
  0
SOLID
  5
38
  8
0
  6
BYBLOCK
 62
     2
 10
221.9944717816999
 20
162.68336825520001
 30
0.0
 11
223.58394276070001
 21
162.50011431349989
 31
0.0
 12
223.36187583889989
 22
167.5588380934999
 32
0.0
 13
223.36187583889989
 23
167.5588380934999
 33
0.0
  0
ENDBLK
  5
39
  8
0
  0
BLOCK
  8
0
  6
BYBLOCK
 62
     2
  2
*D1
 70
     1
 10
0.0
 20
0.0
 30
0.0
  3
*D1
  1

  0
TEXT
  5
3B
  8
0
  6
BYBLOCK
 62
     2
 10
344.24999999999989
 20
41.055921052599999
 30
0.0
 40
4.0
  1
16.00
 41
1.1999999999999991
 72
     5
 11
360.25
 21
41.055921052599999
 31
0.0
  0
LINE
  5
3C
  8
0
  6
BYBLOCK
 62
     2
 10
320.67285316620001
 20
53.990309437400001
 30
0.0
 11
320.67285316620001
 21
37.055921052599999
 31
0.0
  0
LINE
  5
3D
  8
0
  6
BYBLOCK
 62
     2
 10
336.67285316620001
 20
53.990309437400001
 30
0.0
 11
336.67285316620001
 21
37.055921052599999
 31
0.0
  0
LINE
  5
3E
  8
0
  6
BYBLOCK
 62
     2
 10
320.67285316620001
 20
40.055921052599992
 30
0.0
 11
328.67285316620001
 21
40.055921052599992
 31
0.0
  0
LINE
  5
3F
  8
0
  6
BYBLOCK
 62
     2
 10
336.67285316620001
 20
40.055921052599992
 30
0.0
 11
328.67285316620001
 21
40.055921052599992
 31
0.0
  0
LINE
  5
40
  8
0
  6
BYBLOCK
 62
     2
 10
328.67285316620001
 20
40.055921052599992
 30
0.0
 11
360.25
 21
40.055921052599992
 31
0.0
  0
SOLID
  5
41
  8
0
  6
BYBLOCK
 62
     2
 10
325.67285316620001
 20
39.255921052600002
 30
0.0
 11
325.67285316620001
 21
40.855921052600003
 31
0.0
 12
320.67285316620001
 22
40.055921052599992
 32
0.0
 13
320.67285316620001
 23
40.055921052599992
 33
0.0
  0
SOLID
  5
42
  8
0
  6
BYBLOCK
 62
     2
 10
331.67285316620001
 20
40.855921052600003
 30
0.0
 11
331.67285316620001
 21
39.255921052600002
 31
0.0
 12
336.67285316620001
 22
40.055921052599992
 32
0.0
 13
336.67285316620001
 23
40.055921052599992
 33
0.0
  0
ENDBLK
  5
43
  8
0
  0
BLOCK
  8
0
  6
BYBLOCK
 62
     2
  2
*D2
 70
     1
 10
0.0
 20
0.0
 30
0.0
  3
*D2
  1

  0
TEXT
  5
45
  8
0
  6
BYBLOCK
 62
     2
 10
51.710687000100002
 20
187.2905233626999
 30
0.0
 40
4.0
  1
88.98
 50
296.27361553824488
 41
0.9999999999978363
 72
     5
 11
58.7932200511
 21
172.9434774792999
 31
0.0
  0
LINE
  5
46
  8
0
  6
BYBLOCK
 62
     2
 10
64.033766098399994
 20
250.54565456489991
 30
0.0
 11
25.430890531100001
 21
231.48903870870001
 31
0.0
  0
LINE
  5
47
  8
0
  6
BYBLOCK
 62
     2
 10
103.4219763735999
 20
170.7571867938
 30
0.0
 11
64.8191008063
 21
151.70057093759991
 31
0.0
  0
LINE
  5
48
  8
0
  6
BYBLOCK
 62
     2
 10
28.120961634299999
 20
232.81701365570001
 30
0.0
 11
47.8150667719
 21
192.9227797701999
 31
0.0
  0
LINE
  5
49
  8
0
  6
BYBLOCK
 62
     2
 10
67.509171909399996
 20
153.02854588459991
 30
0.0
 11
47.8150667719
 21
192.9227797701999
 31
0.0
  0
SOLID
  5
4A
  8
0
  6
BYBLOCK
 62
     2
 10
29.616900918599988
 20
227.97943516460001
 30
0.0
 11
31.051605506899989
 21
228.68768846969999
 31
0.0
 12
28.120961634299999
 22
232.81701365570001
 32
0.0
 13
28.120961634299999
 23
232.81701365570001
 33
0.0
  0
SOLID
  5
4B
  8
0
  6
BYBLOCK
 62
     2
 10
66.013232625200004
 20
157.86612437580001
 30
0.0
 11
64.578528036799995
 21
157.1578710707
 31
0.0
 12
67.509171909399996
 22
153.02854588459991
 32
0.0
 13
67.509171909399996
 23
153.02854588459991
 33
0.0
  0
ENDBLK
  5
4C
  8
0
  0
BLOCK
  8
0
  2
A$C24B160AE
 70
     0
 10
0.0
 20
0.0
 30
0.0
  3
A$C24B160AE
  1

  0
TEXT
  5
149
  8
0
 10
18.33333314467259
 20
94.418895419012344
 30
0.0
 40
4.0
  1
TL/TR/BL/BR - I-03
  0
TEXT
  5
17B
  8
0
 10
30.666666478005929
 20
87.752228752345658
 30
0.0
 40
4.0
  1
TDL-1002-939
1001
ACAD
1000
R13OBJECT
1002
{
1005
149
1002
}
  0
TEXT
  5
17C
  8
0
 10
-0.0000001886607208
 20
81.085562085679001
 30
0.0
 40
4.0
  1
THIS SIDE IS THE COPPER SIDE
1001
ACAD
1000
R13OBJECT
1002
{
1005
149
1002
}
  0
TEXT
  5
14A
  8
0
 10
99.916584572389638
 20
5.0000000091170591
 30
0.0
 40
3.0
  1
HI/LOW TENSION
  0
TEXT
  5
17D
  8
0
 10
103.9165845723896
 20
0.0000000091170591
 30
0.0
 40
3.0
  1
CIRCUIT SIDE
1001
ACAD
1000
R13OBJECT
1002
{
1005
14A
1002
}
  0
ENDBLK
  5
14C
  8
0
  0
ENDSEC
  0
SECTION
  2
ENTITIES
  0
DIMENSION
  5
4D
  8
0
 62
     2
  2
*D0
 10
223.36187583889989
 20
167.5588380934999
 30
0.0
 11
222.81759057019991
 21
189.0310876142
 31
0.0
 13
230.40308201799991
 23
145.60793162909991
 33
0.0
 14
232.8082900023999
 24
166.4697382276
 34
0.0
 50
83.423269000000175
  0
DIMENSION
  5
4E
  8
0
 62
     2
  2
*D1
 10
336.67285316620001
 20
40.055921052599992
 30
0.0
 11
352.24999999999989
 21
43.055921052599992
 31
0.0
 13
320.67285316620001
 23
53.990309437400001
 33
0.0
 14
336.67285316620001
 24
53.990309437400001
 34
0.0
  0
DIMENSION
  5
4F
  8
0
 62
     2
  2
*D2
 10
67.509171909399996
 20
153.02854588459991
 30
0.0
 11
57.045334261000001
 21
181.0023170522999
 31
0.0
 13
64.033766098399994
 23
250.54565456489991
 33
0.0
 14
103.4219763735999
 24
170.7571867938
 34
0.0
 50
296.27361600000057
  0
LINE
  5
54
  8
0
 62
     3
 10
84.657644555800005
 20
260.72679582580002
 30
0.0
 11
65.827146833800001
 21
251.43097119619989
 31
0.0
  0
LINE
  5
56
  8
0
 62
     3
 10
336.67285316620001
 20
55.990309437400001
 30
0.0
 11
320.67285316620001
 21
55.990309437400001
 31
0.0
  0
LINE
  5
59
  8
0
 62
     3
 10
105.8635087072
 20
170.3295465139999
 30
0.0
 11
65.827146833800001
 21
251.43097119619989
 31
0.0
  0
LINE
  5
5B
  8
0
 62
     3
 10
317.6281609838
 20
98.729485975200006
 30
0.0
 11
262.81511652990002
 21
93.810366601200016
 31
0.0
  0
LINE
  5
5F
  8
0
 62
     3
 10
124.6940064291
 20
179.6253711434999
 30
0.0
 11
84.657644555800005
 21
260.72679582580002
 31
0.0
  0
LINE
  5
61
  8
0
 62
     3
 10
315.75108932540002
 20
119.6454273117
 30
0.0
 11
260.93804487149998
 21
114.7263079375999
 31
0.0
  0
LINE
  5
62
  8
0
 62
     3
 10
232.38992074169991
 20
145.3788642019999
 30
0.0
 11
123.462033426
 21
157.9374229757999
 31
0.0
  0
LINE
  5
63
  8
0
 62
     3
 10
234.7951287260999
 20
166.2406708005
 30
0.0
 11
125.8672414103999
 21
178.7992295743
 31
0.0
  0
LINE
  5
64
  8
0
 62
     3
 10
238.57061972029999
 20
112.7665796922999
 30
0.0
 11
233.7003434115999
 21
144.11898342960001
 31
0.0
  0
LINE
  5
65
  8
0
 62
     3
 10
259.32174508420002
 20
115.990055477
 30
0.0
 11
254.45146877549999
 21
147.34245921429999
 31
0.0
  0
LINE
  5
66
  8
0
 62
     3
 10
319.65522769540001
 20
86.256430911999999
 30
0.0
 11
319.07085880679989
 21
89.6765919897
 31
0.0
  0
LINE
  5
67
  8
0
 62
     3
 10
319.9325742099
 20
84.576591989700006
 30
0.0
 11
319.65522769540001
 21
86.256430911999999
 31
0.0
  0
POLYLINE
  5
68
  8
0
 62
     3
 66
     1
 10
0.0
 20
0.0
 30
0.0
  0
VERTEX
  5
253
  8
0
 62
     3
 10
320.67285316620001
 20
76.990309437400001
 30
0.0
  0
VERTEX
  5
254
  8
0
 62
     3
 10
320.58244016489999
 20
79.393949323100003
 30
0.0
  0
VERTEX
  5
255
  8
0
 62
     3
 10
320.32488027879992
 20
81.926801546799993
 30
0.0
  0
VERTEX
  5
256
  8
0
 62
     3
 10
319.9325742099
 20
84.576591989700006
 30
0.0
  0
SEQEND
  5
257
  8
0
 62
     3
  0
POLYLINE
  5
6E
  8
0
 62
     3
 66
     1
 10
0.0
 20
0.0
 30
0.0
  0
VERTEX
  5
258
  8
0
 62
     3
 10
318.18717078280002
 20
97.262874541900004
 30
0.0
  0
VERTEX
  5
259
  8
0
 62
     3
 10
318.17921997249988
 20
97.588292289600005
 30
0.0
  0
VERTEX
  5
25A
  8
0
 62
     3
 10
318.17444064919999
 20
97.911169162199997
 30
0.0
  0
VERTEX
  5
25B
  8
0
 62
     3
 10
318.17285316620001
 20
98.231487372000004
 30
0.0
  0
SEQEND
  5
25C
  8
0
 62
     3
  0
POLYLINE
  5
74
  8
0
 62
     3
 66
     1
 10
0.0
 20
0.0
 30
0.0
  0
VERTEX
  5
25D
  8
0
 62
     3
 10
319.07085880679989
 20
89.6765919897
 30
0.0
  0
VERTEX
  5
25E
  8
0
 62
     3
 10
318.64985758469999
 20
92.314710926299995
 30
0.0
  0
VERTEX
  5
25F
  8
0
 62
     3
 10
318.34285069729992
 20
94.847657627000004
 30
0.0
  0
VERTEX
  5
260
  8
0
 62
     3
 10
318.18717078280002
 20
97.262874541900004
 30
0.0
  0
SEQEND
  5
261
  8
0
 62
     3
  0
LINE
  5
7A
  8
0
 62
     3
 10
320.67285316620001
 20
55.990309437400001
 30
0.0
 11
320.67285316620001
 21
76.990309437400001
 31
0.0
  0
LINE
  5
7B
  8
0
 62
     3
 10
336.67285316620001
 20
55.990309437400001
 30
0.0
 11
336.67285316620001
 21
76.990309437400001
 31
0.0
  0
POLYLINE
  5
7C
  8
0
 62
     3
 66
     1
 10
0.0
 20
0.0
 30
0.0
  0
VERTEX
  5
262
  8
0
 62
     3
 10
339.15853554950002
 20
97.262874541900004
 30
0.0
  0
VERTEX
  5
263
  8
0
 62
     3
 10
339.16648635979988
 20
97.588292289600005
 30
0.0
  0
VERTEX
  5
264
  8
0
 62
     3
 10
339.17126568319992
 20
97.911169162199997
 30
0.0
  0
VERTEX
  5
265
  8
0
 62
     3
 10
339.17285316620001
 20
98.231487372000004
 30
0.0
  0
SEQEND
  5
266
  8
0
 62
     3
  0
POLYLINE
  5
82
  8
0
 62
     3
 66
     1
 10
0.0
 20
0.0
 30
0.0
  0
VERTEX
  5
267
  8
0
 62
     3
 10
336.67285316620001
 20
76.990309437400001
 30
0.0
  0
VERTEX
  5
268
  8
0
 62
     3
 10
336.76326616739988
 20
79.393949323100003
 30
0.0
  0
VERTEX
  5
269
  8
0
 62
     3
 10
337.0208260535
 20
81.926801546799993
 30
0.0
  0
VERTEX
  5
26A
  8
0
 62
     3
 10
337.41313212239999
 20
84.576591989700006
 30
0.0
  0
SEQEND
  5
26B
  8
0
 62
     3
  0
POLYLINE
  5
88
  8
0
 62
     3
 66
     1
 10
0.0
 20
0.0
 30
0.0
  0
VERTEX
  5
26C
  8
0
 62
     3
 10
338.27484752549992
 20
89.6765919897
 30
0.0
  0
VERTEX
  5
26D
  8
0
 62
     3
 10
338.69584874759988
 20
92.314710926299995
 30
0.0
  0
VERTEX
  5
26E
  8
0
 62
     3
 10
339.00285563509988
 20
94.847657627000004
 30
0.0
  0
VERTEX
  5
26F
  8
0
 62
     3
 10
339.15853554950002
 20
97.262874541900004
 30
0.0
  0
SEQEND
  5
270
  8
0
 62
     3
  0
POLYLINE
  5
8E
  8
0
 62
     3
 66
     1
 10
0.0
 20
0.0
 30
0.0
  0
VERTEX
  5
271
  8
0
 62
     3
 10
337.41313212239999
 20
84.576591989700006
 30
0.0
  0
VERTEX
  5
272
  8
0
 62
     3
 10
337.69047863700001
 20
86.256430911999999
 30
0.0
  0
VERTEX
  5
273
  8
0
 62
     3
 10
338.27484752549992
 20
89.6765919897
 30
0.0
  0
SEQEND
  5
274
  8
0
 62
     3
  0
ARC
  5
93
  8
0
 62
     3
 10
317.67285316620001
 20
98.231487372000004
 30
0.0
 40
21.499999999999989
 50
0.0
 51
95.128191041900223
  0
ARC
  5
94
  8
0
 62
     3
 10
260.80396832439988
 20
116.2203037474
 30
0.0
 40
1.5
 50
188.8297446679004
 51
275.12819104190061
  0
ARC
  5
95
  8
0
 62
     3
 10
232.2181201713999
 20
143.88873515930001
 30
0.0
 40
22.5
 50
8.8297446679000213
 51
83.423268900600178
  0
ARC
  5
96
  8
0
 62
     3
 10
126.03904198070001
 20
180.289358617
 30
0.0
 40
1.5
 50
206.27361553850039
 51
263.42326890060059
  0
ARC
  5
97
  8
0
 62
     3
 10
126.03904198070001
 20
180.289358617
 30
0.0
 40
22.5
 50
206.27361553850039
 51
263.42326890060059
  0
ARC
  5
98
  8
0
 62
     3
 10
232.2181201713999
 20
143.88873515930001
 30
0.0
 40
1.5
 50
8.8297446679000213
 51
83.423268900600178
  0
ARC
  5
99
  8
0
 62
     3
 10
260.80396832439988
 20
116.2203037474
 30
0.0
 40
22.5
 50
188.8297446679004
 51
275.12819104190061
  0
ARC
  5
9A
  8
0
 62
     3
 10
317.67285316620001
 20
98.231487372000004
 30
0.0
 40
0.5
 50
0.0
 51
95.128191041900223
  0
LINE
  5
9C
  8
0
 62
     3
 10
95.843526679575874
 20
261.78794666975318
 30
0.0
 11
86.428277818566343
 21
257.1400343549484
 31
0.0
  0
LINE
  5
9D
  8
0
 62
     3
 10
344.6728531661999
 20
59.190309437400003
 30
0.0
 11
336.67285316620001
 21
59.190309437400003
 31
0.0
  0
LINE
  5
9E
  8
0
 62
     3
 10
67.597780096571682
 20
247.84420972535099
 30
0.0
 11
58.18253123557588
 21
243.196297410553
 31
0.0
  0
LINE
  5
9F
  8
0
 62
     3
 10
320.67285316620001
 20
59.190309437400003
 30
0.0
 11
312.67285316620001
 21
59.190309437400003
 31
0.0
  0
TEXT
  5
14E
  8
0
 10
136.4049212195342
 20
128.2156117371118
 30
0.0
 40
4.0
  1
TL/TR/BL/BR - O-07
  0
TEXT
  5
178
  8
0
 10
151.7382545528676
 20
121.5489450704452
 30
0.0
 40
4.0
  1
TD-1002-940
1001
ACAD
1000
R13OBJECT
1002
{
1005
14E
1002
}
  0
TEXT
  5
179
  8
0
 10
118.7382545528676
 20
114.8822784037785
 30
0.0
 40
4.0
  1
THIS SIDE IS THE COPPER SIDE
1001
ACAD
1000
R13OBJECT
1002
{
1005
14E
1002
}
  0
TEXT
  5
14F
  8
0
 10
345.6578404078146
 20
61.20567488061311
 30
0.0
 40
3.0
  1
HI/LOW TENSION
  0
TEXT
  5
17A
  8
0
 10
349.6578404078146
 20
56.20567488061311
 30
0.0
 40
3.0
  1
CIRCUIT SIDE
1001
ACAD
1000
R13OBJECT
1002
{
1005
14F
1002
}
  0
POLYLINE
  5
1CB
  8
TOP_TAPE
 66
     1
 10
0.0
 20
0.0
 30
0.0
 70
   128
 40
0.5
 41
0.5
  0
VERTEX
  5
279
  8
TOP_TAPE
 10
74.79405051094372
 20
255.8575543531538
 30
0.0
  0
VERTEX
  5
27A
  8
TOP_TAPE
 10
114.8304123843069
 20
174.7561296708771
 30
0.0
 42
0.2546628651549991
  0
VERTEX
  5
27B
  8
TOP_TAPE
 10
124.6073705614352
 20
167.8716165941334
 30
0.0
  0
VERTEX
  5
27C
  8
TOP_TAPE
 10
233.5352578770993
 20
155.31305782034869
 30
0.0
 42
-0.3374774930043047
  0
VERTEX
  5
27D
  8
TOP_TAPE
 10
243.58183168013241
 20
145.65397189849389
 30
0.0
  0
VERTEX
  5
27E
  8
TOP_TAPE
 10
248.45210798878509
 20
114.3015681612591
 30
0.0
 42
0.3954155257123393
  0
VERTEX
  5
27F
  8
TOP_TAPE
 10
261.92127288297041
 20
103.77033866614489
 30
0.0
  0
VERTEX
  5
280
  8
TOP_TAPE
 10
315.644932972319
 20
108.59169277671
 30
0.0
 42
-0.4290281642686061
  0
VERTEX
  5
281
  8
TOP_TAPE
 10
328.16402321233647
 20
97.588292289600034
 30
0.0
 42
-0.4290281642686061
  0
SEQEND
  5
282
  8
TOP_TAPE
  0
POLYLINE
  5
1CC
  8
TOP_TAPE
 66
     1
 10
0.0
 20
0.0
 30
0.0
 70
   128
 40
0.5
 41
0.5
  0
VERTEX
  5
283
  8
TOP_TAPE
 10
75.690740878656271
 20
256.30021266884609
 30
0.0
  0
VERTEX
  5
284
  8
TOP_TAPE
 10
115.7271027520195
 20
175.1987879865693
 30
0.0
 42
0.2546628651549993
  0
VERTEX
  5
285
  8
TOP_TAPE
 10
124.7219042749776
 20
168.86503595596511
 30
0.0
  0
VERTEX
  5
286
  8
TOP_TAPE
 10
233.6497915906416
 20
156.3064771821804
 30
0.0
 42
-0.337477493004304
  0
VERTEX
  5
287
  8
TOP_TAPE
 10
244.56998050698189
 20
145.80747074538169
 30
0.0
  0
VERTEX
  5
288
  8
TOP_TAPE
 10
249.4402568156346
 20
114.455067008147
 30
0.0
 42
0.395415525712342
  0
VERTEX
  5
289
  8
TOP_TAPE
 10
261.83188851828521
 20
104.7663358726419
 30
0.0
  0
VERTEX
  5
28A
  8
TOP_TAPE
 10
315.55554860763368
 20
109.587689983207
 30
0.0
 42
-0.4299569623936109
  0
VERTEX
  5
28B
  8
TOP_TAPE
 10
329.16473008799312
 20
97.588292289600005
 30
0.0
 42
-0.4299569623936109
  0
SEQEND
  5
28C
  8
TOP_TAPE
  0
POLYLINE
  5
1CD
  8
TOP_TAPE
 66
     1
 10
0.0
 20
0.0
 30
0.0
 70
   128
 40
0.5
 41
0.5
  0
VERTEX
  5
28D
  8
TOP_TAPE
 10
73.897360143231154
 20
255.4148960374616
 30
0.0
  0
VERTEX
  5
28E
  8
TOP_TAPE
 10
113.9337220165943
 20
174.31347135518479
 30
0.0
 42
0.2546628651550002
  0
VERTEX
  5
28F
  8
TOP_TAPE
 10
124.4928368478929
 20
166.8781972323016
 30
0.0
  0
VERTEX
  5
290
  8
TOP_TAPE
 10
233.420724163557
 20
154.31963845851689
 30
0.0
 42
-0.3374774930043028
  0
VERTEX
  5
291
  8
TOP_TAPE
 10
242.5936828532829
 20
145.50047305160601
 30
0.0
  0
VERTEX
  5
292
  8
TOP_TAPE
 10
247.46395916193561
 20
114.1480693143712
 30
0.0
 42
0.3954155257123387
  0
VERTEX
  5
293
  8
TOP_TAPE
 10
262.01065724765567
 20
102.7743414596479
 30
0.0
  0
VERTEX
  5
294
  8
TOP_TAPE
 10
315.73431733700431
 20
107.595695570213
 30
0.0
 42
-0.427923117075218
  0
VERTEX
  5
295
  8
TOP_TAPE
 10
327.16318152279717
 20
97.588292289600005
 30
0.0
 42
-0.427923117075218
  0
SEQEND
  5
296
  8
TOP_TAPE
  0
POLYLINE
  5
1CE
  8
TOP_TAPE
 66
     1
 10
0.0
 20
0.0
 30
0.0
 70
   128
 40
4.5
 41
4.5
  0
VERTEX
  5
297
  8
TOP_TAPE
 10
71.207289040093457
 20
254.08692109038481
 30
0.0
  0
VERTEX
  5
298
  8
TOP_TAPE
 10
111.2436509134567
 20
172.98549640810799
 30
0.0
 42
0.254662865154999
  0
VERTEX
  5
299
  8
TOP_TAPE
 10
124.1492357072661
 20
163.89793914680641
 30
0.0
  0
VERTEX
  5
29A
  8
TOP_TAPE
 10
233.0771230229301
 20
151.3393803730217
 30
0.0
 42
-0.3374774930043051
  0
VERTEX
  5
29B
  8
TOP_TAPE
 10
239.6292363727344
 20
145.03997651094241
 30
0.0
  0
VERTEX
  5
29C
  8
TOP_TAPE
 10
244.49951268138699
 20
113.6875727737077
 30
0.0
 42
0.3954155257123403
  0
VERTEX
  5
29D
  8
TOP_TAPE
 10
262.27881034171162
 20
99.786349840157044
 30
0.0
  0
VERTEX
  5
29E
  8
TOP_TAPE
 10
316.0024704310602
 20
104.607703950722
 30
0.0
 42
-0.4228487091928618
  0
VERTEX
  5
29F
  8
TOP_TAPE
 10
324.1593068680022
 20
97.588292289600034
 30
0.0
 42
-0.4228487091928618
  0
SEQEND
  5
2A0
  8
TOP_TAPE
  0
POLYLINE
  5
1CF
  8
TOP_TAPE
 66
     1
 10
0.0
 20
0.0
 30
0.0
 70
   128
 40
0.5
 41
0.5
  0
VERTEX
  5
2A1
  8
TOP_TAPE
 10
68.517217936955774
 20
252.75894614330801
 30
0.0
  0
VERTEX
  5
2A2
  8
TOP_TAPE
 10
108.55357981031899
 20
171.65752146103119
 30
0.0
 42
0.2546628651549988
  0
VERTEX
  5
2A3
  8
TOP_TAPE
 10
123.8056345666392
 20
160.9176810613111
 30
0.0
  0
VERTEX
  5
2A4
  8
TOP_TAPE
 10
232.73352188230319
 20
148.35912228752639
 30
0.0
 42
-0.3374774930043052
  0
VERTEX
  5
2A5
  8
TOP_TAPE
 10
236.66478989218581
 20
144.57947997027881
 30
0.0
  0
VERTEX
  5
2A6
  8
TOP_TAPE
 10
241.53506620083849
 20
113.2270762330441
 30
0.0
 42
0.3954155257123413
  0
VERTEX
  5
2A7
  8
TOP_TAPE
 10
262.54696343576762
 20
96.798358220666074
 30
0.0
  0
VERTEX
  5
2A8
  8
TOP_TAPE
 10
316.27062352511609
 20
101.6197123312311
 30
0.0
 42
-0.411056669141446
  0
VERTEX
  5
2A9
  8
TOP_TAPE
 10
321.15023957226617
 20
97.588292289600005
 30
0.0
 42
-0.411056669141446
  0
SEQEND
  5
2AA
  8
TOP_TAPE
  0
POLYLINE
  5
1D0
  8
TOP_TAPE
 66
     1
 10
0.0
 20
0.0
 30
0.0
 70
   128
 40
0.5
 41
0.5
  0
VERTEX
  5
2AB
  8
TOP_TAPE
 10
67.620527569243208
 20
252.31628782761581
 30
0.0
  0
VERTEX
  5
2AC
  8
TOP_TAPE
 10
107.6568894426064
 20
171.214863145339
 30
0.0
 42
0.2546628651549982
  0
VERTEX
  5
2AD
  8
TOP_TAPE
 10
123.6911008530969
 20
159.92426169947939
 30
0.0
  0
VERTEX
  5
2AE
  8
TOP_TAPE
 10
232.61898816876089
 20
147.36570292569459
 30
0.0
 42
-0.3374774930043091
  0
VERTEX
  5
2AF
  8
TOP_TAPE
 10
235.67664106533621
 20
144.42598112339101
 30
0.0
  0
VERTEX
  5
2B0
  8
TOP_TAPE
 10
240.54691737398889
 20
113.0735773861562
 30
0.0
 42
0.3954155257123428
  0
VERTEX
  5
2B1
  8
TOP_TAPE
 10
262.63634780045288
 20
95.802361014169108
 30
0.0
  0
VERTEX
  5
2B2
  8
TOP_TAPE
 10
316.36000788980141
 20
100.6237151247341
 30
0.0
 42
-0.4026654789281318
  0
VERTEX
  5
2B3
  8
TOP_TAPE
 10
320.14373043703898
 20
97.588292289600005
 30
0.0
 42
-0.4026654789281318
  0
SEQEND
  5
2B4
  8
TOP_TAPE
  0
POLYLINE
  5
1D1
  8
TOP_TAPE
 66
     1
 10
0.0
 20
0.0
 30
0.0
 70
   128
 40
0.5
 41
0.5
  0
VERTEX
  5
2B5
  8
TOP_TAPE
 10
66.723837201530642
 20
251.8736295119235
 30
0.0
  0
VERTEX
  5
2B6
  8
TOP_TAPE
 10
106.76019907489381
 20
170.77220482964671
 30
0.0
 42
0.2546628651549994
  0
VERTEX
  5
2B7
  8
TOP_TAPE
 10
123.5765671395546
 20
158.93084233764759
 30
0.0
  0
VERTEX
  5
2B8
  8
TOP_TAPE
 10
232.50445445521859
 20
146.37228356386291
 30
0.0
 42
-0.3374774930043011
  0
VERTEX
  5
2B9
  8
TOP_TAPE
 10
234.6884922384867
 20
144.2724822765031
 30
0.0
  0
VERTEX
  5
2BA
  8
TOP_TAPE
 10
239.55876854713941
 20
112.9200785392683
 30
0.0
 42
0.3954155257123431
  0
VERTEX
  5
2BB
  8
TOP_TAPE
 10
262.7257321651382
 20
94.806363807672113
 30
0.0
  0
VERTEX
  5
2BC
  8
TOP_TAPE
 10
316.44939225448672
 20
99.627717918237124
 30
0.0
 42
-0.3875994373026096
  0
VERTEX
  5
2BD
  8
TOP_TAPE
 10
319.1319157984293
 20
97.588292289600005
 30
0.0
 42
-0.3875994373026096
  0
SEQEND
  5
2BE
  8
TOP_TAPE
  0
POLYLINE
  5
1D2
  8
TOP_TAPE
 66
     1
 10
0.0
 20
0.0
 30
0.0
 70
   128
 40
4.5
 41
4.5
  0
VERTEX
  5
2BF
  8
TOP_TAPE
 10
78.380811981793968
 20
257.6281876159228
 30
0.0
  0
VERTEX
  5
2C0
  8
TOP_TAPE
 10
118.4171738551572
 20
176.5267629336461
 30
0.0
 42
0.2546628651549985
  0
VERTEX
  5
2C1
  8
TOP_TAPE
 10
125.06550541560441
 20
171.84529404146039
 30
0.0
  0
VERTEX
  5
2C2
  8
TOP_TAPE
 10
233.9933927312685
 20
159.28673526767571
 30
0.0
 42
-0.337477493004305
  0
VERTEX
  5
2C3
  8
TOP_TAPE
 10
247.53442698753051
 20
146.26796728604529
 30
0.0
  0
VERTEX
  5
2C4
  8
TOP_TAPE
 10
252.40470329618319
 20
114.9155635488105
 30
0.0
 42
0.3954155257123402
  0
VERTEX
  5
2C5
  8
TOP_TAPE
 10
261.56373542422932
 20
107.7543274921329
 30
0.0
  0
VERTEX
  5
2C6
  8
TOP_TAPE
 10
315.28739551357779
 20
112.5756816026979
 30
0.0
 42
-0.432026174594944
  0
VERTEX
  5
2C7
  8
TOP_TAPE
 10
332.16630304120281
 20
97.588292289600005
 30
0.0
 42
-0.432026174594944
  0
SEQEND
  5
2C8
  8
TOP_TAPE
  0
POLYLINE
  5
1D3
  8
TOP_TAPE
 66
     1
 10
0.0
 20
0.0
 30
0.0
 70
   128
 40
0.5
 41
0.5
  0
VERTEX
  5
2C9
  8
TOP_TAPE
 10
81.070883084931666
 20
258.95616256299962
 30
0.0
  0
VERTEX
  5
2CA
  8
TOP_TAPE
 10
121.1072449582949
 20
177.85473788072281
 30
0.0
 42
0.2546628651549995
  0
VERTEX
  5
2CB
  8
TOP_TAPE
 10
125.40910655623129
 20
174.82555212695561
 30
0.0
  0
VERTEX
  5
2CC
  8
TOP_TAPE
 10
234.3369938718954
 20
162.2669933531709
 30
0.0
 42
-0.3374774930043046
  0
VERTEX
  5
2CD
  8
TOP_TAPE
 10
250.4988734680791
 20
146.72846382670889
 30
0.0
  0
VERTEX
  5
2CE
  8
TOP_TAPE
 10
255.3691497767318
 20
115.37606008947409
 30
0.0
 42
0.3954155257123396
  0
VERTEX
  5
2CF
  8
TOP_TAPE
 10
261.29558233017337
 20
110.7423191116239
 30
0.0
  0
VERTEX
  5
2D0
  8
TOP_TAPE
 10
315.0192424195219
 20
115.5636732221889
 30
0.0
 42
-0.4334258129761403
  0
VERTEX
  5
2D1
  8
TOP_TAPE
 10
335.16736556932182
 20
97.588292289599991
 30
0.0
 42
-0.4334258129761403
  0
SEQEND
  5
2D2
  8
TOP_TAPE
  0
POLYLINE
  5
1D4
  8
TOP_TAPE
 66
     1
 10
0.0
 20
0.0
 30
0.0
 70
   128
 40
0.5
 41
0.5
  0
VERTEX
  5
2D3
  8
TOP_TAPE
 10
82.864263820356783
 20
259.84147919438419
 30
0.0
  0
VERTEX
  5
2D4
  8
TOP_TAPE
 10
122.90062569372
 20
178.74005451210741
 30
0.0
 42
0.2546628651550058
  0
VERTEX
  5
2D5
  8
TOP_TAPE
 10
125.63817398331589
 20
176.81239085061921
 30
0.0
  0
VERTEX
  5
2D6
  8
TOP_TAPE
 10
234.56606129897989
 20
164.2538320768345
 30
0.0
 42
-0.3374774930043042
  0
VERTEX
  5
2D7
  8
TOP_TAPE
 10
252.4751711217782
 20
147.0354615204846
 30
0.0
  0
VERTEX
  5
2D8
  8
TOP_TAPE
 10
257.34544743043091
 20
115.68305778324979
 30
0.0
 42
0.3954155257123412
  0
VERTEX
  5
2D9
  8
TOP_TAPE
 10
261.1168136008028
 20
112.7343135246178
 30
0.0
  0
VERTEX
  5
2DA
  8
TOP_TAPE
 10
314.84047369015133
 20
117.5556676351829
 30
0.0
 42
-0.4341318008826847
  0
VERTEX
  5
2DB
  8
TOP_TAPE
 10
337.1679010809824
 20
97.588292289599991
 30
0.0
 42
-0.4341318008826847
  0
SEQEND
  5
2DC
  8
TOP_TAPE
  0
LINE
  5
1D7
  8
TOP_TAPE
 10
328.17285316620001
 20
55.990309437400001
 30
0.0
 11
328.17285316620001
 21
77.327675682921154
 31
0.0
  0
LINE
  5
1D8
  8
TOP_TAPE
 10
329.17285316620001
 20
55.990309437400001
 30
0.0
 11
329.17285316620001
 21
77.327675682921154
 31
0.0
  0
LINE
  5
1D9
  8
TOP_TAPE
 10
327.17285316620001
 20
55.990309437400001
 30
0.0
 11
327.17285316620001
 21
77.327675682921154
 31
0.0
  0
LINE
  5
1DA
  8
TOP_TAPE
 10
325.67285316620001
 20
55.990309437400001
 30
0.0
 11
325.67285316620001
 21
77.327675682921154
 31
0.0
  0
LINE
  5
1DB
  8
TOP_TAPE
 10
324.17285316620001
 20
55.990309437400001
 30
0.0
 11
324.17285316620001
 21
77.327675682921154
 31
0.0
  0
LINE
  5
1DC
  8
TOP_TAPE
 10
323.17285316620001
 20
55.990309437400001
 30
0.0
 11
323.17285316620001
 21
77.327675682921154
 31
0.0
  0
LINE
  5
1DD
  8
TOP_TAPE
 10
322.17285316620001
 20
55.990309437400001
 30
0.0
 11
322.17285316620001
 21
77.327675682921154
 31
0.0
  0
LINE
  5
1DE
  8
TOP_TAPE
 10
330.67285316620001
 20
55.990309437400001
 30
0.0
 11
330.67285316620001
 21
77.327675682921154
 31
0.0
  0
LINE
  5
1DF
  8
TOP_TAPE
 10
332.1728531661999
 20
55.990309437400001
 30
0.0
 11
332.1728531661999
 21
77.327675682921154
 31
0.0
  0
POLYLINE
  5
1E1
  8
TOP_TAPE
 66
     1
 10
0.0
 20
0.0
 30
0.0
 70
   128
 40
0.5
 41
0.5
  0
VERTEX
  5
2DD
  8
TOP_TAPE
 10
319.1319157984293
 20
97.588292289600005
 30
0.0
  0
VERTEX
  5
2DE
  8
TOP_TAPE
 10
322.17285316620001
 20
76.990309437400001
 30
0.0
  0
VERTEX
  5
2DF
  8
TOP_TAPE
 10
322.17285316620001
 20
55.990309437400001
 30
0.0
  0
SEQEND
  5
2E0
  8
TOP_TAPE
  0
POLYLINE
  5
1E2
  8
TOP_TAPE
 66
     1
 10
0.0
 20
0.0
 30
0.0
 70
   128
 40
0.5
 41
0.5
  0
VERTEX
  5
2E1
  8
TOP_TAPE
 10
320.14373043703898
 20
97.588292289600005
 30
0.0
  0
VERTEX
  5
2E2
  8
TOP_TAPE
 10
323.17285316620001
 20
76.990309437400001
 30
0.0
  0
VERTEX
  5
2E3
  8
TOP_TAPE
 10
323.17285316620001
 20
55.990309437400001
 30
0.0
  0
SEQEND
  5
2E4
  8
TOP_TAPE
  0
POLYLINE
  5
1E3
  8
TOP_TAPE
 66
     1
 10
0.0
 20
0.0
 30
0.0
 70
   128
 40
0.5
 41
0.5
  0
VERTEX
  5
2E5
  8
TOP_TAPE
 10
321.15023957226617
 20
97.588292289599991
 30
0.0
  0
VERTEX
  5
2E6
  8
TOP_TAPE
 10
324.17285316620001
 20
76.990309437400001
 30
0.0
  0
VERTEX
  5
2E7
  8
TOP_TAPE
 10
324.17285316620001
 20
55.990309437400001
 30
0.0
  0
SEQEND
  5
2E8
  8
TOP_TAPE
  0
POLYLINE
  5
1E4
  8
TOP_TAPE
 66
     1
 10
0.0
 20
0.0
 30
0.0
 70
   128
 40
0.5
 41
0.5
  0
VERTEX
  5
2E9
  8
TOP_TAPE
 10
327.16318152279717
 20
97.588292289599991
 30
0.0
  0
VERTEX
  5
2EA
  8
TOP_TAPE
 10
327.17285316620001
 20
76.990309437400001
 30
0.0
  0
VERTEX
  5
2EB
  8
TOP_TAPE
 10
327.17285316620001
 20
55.990309437400001
 30
0.0
  0
SEQEND
  5
2EC
  8
TOP_TAPE
  0
POLYLINE
  5
1E5
  8
TOP_TAPE
 66
     1
 10
0.0
 20
0.0
 30
0.0
 70
   128
 40
0.5
 41
0.5
  0
VERTEX
  5
2ED
  8
TOP_TAPE
 10
328.16402321233647
 20
97.588292289599991
 30
0.0
  0
VERTEX
  5
2EE
  8
TOP_TAPE
 10
328.17285316620001
 20
76.990309437400001
 30
0.0
  0
VERTEX
  5
2EF
  8
TOP_TAPE
 10
328.17285316620001
 20
55.990309437400001
 30
0.0
  0
SEQEND
  5
2F0
  8
TOP_TAPE
  0
POLYLINE
  5
1E6
  8
TOP_TAPE
 66
     1
 10
0.0
 20
0.0
 30
0.0
 70
   128
 40
0.5
 41
0.5
  0
VERTEX
  5
2F1
  8
TOP_TAPE
 10
329.16473008799329
 20
97.588292289600005
 30
0.0
  0
VERTEX
  5
2F2
  8
TOP_TAPE
 10
329.17285316620001
 20
76.990309437400001
 30
0.0
  0
VERTEX
  5
2F3
  8
TOP_TAPE
 10
329.17285316620001
 20
55.990309437400001
 30
0.0
  0
SEQEND
  5
2F4
  8
TOP_TAPE
  0
POLYLINE
  5
1E7
  8
TOP_TAPE
 66
     1
 10
0.0
 20
0.0
 30
0.0
 70
   128
 40
0.5
 41
0.5
  0
VERTEX
  5
2F5
  8
TOP_TAPE
 10
335.1945796364999
 20
97.775486334443187
 30
0.0
  0
VERTEX
  5
2F6
  8
TOP_TAPE
 10
332.1728531661999
 20
76.990309437400001
 30
0.0
  0
VERTEX
  5
2F7
  8
TOP_TAPE
 10
332.1728531661999
 20
55.990309437400001
 30
0.0
  0
SEQEND
  5
2F8
  8
TOP_TAPE
  0
POLYLINE
  5
1E8
  8
TOP_TAPE
 66
     1
 10
0.0
 20
0.0
 30
0.0
 70
   128
 40
4.5
 41
1.5
  0
VERTEX
  5
2F9
  8
TOP_TAPE
 10
324.1593068680022
 20
97.588292289599991
 30
0.0
  0
VERTEX
  5
2FA
  8
TOP_TAPE
 10
325.67285316620001
 20
76.990309437400001
 30
0.0
 40
1.5
  0
VERTEX
  5
2FB
  8
TOP_TAPE
 10
325.67285316620001
 20
55.990309437400001
 30
0.0
 40
1.5
  0
SEQEND
  5
2FC
  8
TOP_TAPE
  0
POLYLINE
  5
1E9
  8
TOP_TAPE
 66
     1
 10
0.0
 20
0.0
 30
0.0
 70
   128
 40
4.5277179192238632
 41
1.5
  0
VERTEX
  5
2FD
  8
TOP_TAPE
 10
332.18010148220287
 20
97.775486334443187
 30
0.0
  0
VERTEX
  5
2FE
  8
TOP_TAPE
 10
330.67285316620001
 20
77.327675682921154
 30
0.0
 40
1.5
  0
VERTEX
  5
2FF
  8
TOP_TAPE
 10
330.67285316620001
 20
55.990309437400001
 30
0.0
 40
1.5
  0
SEQEND
  5
300
  8
TOP_TAPE
  0
POLYLINE
  5
1EC
  8
TOP_TAPE
 66
     1
 10
0.0
 20
0.0
 30
0.0
 70
   128
 40
0.5
 41
0.5
  0
VERTEX
  5
301
  8
TOP_TAPE
 10
333.17285316620001
 20
76.918000047360451
 30
0.0
  0
VERTEX
  5
302
  8
TOP_TAPE
 10
333.17285316620001
 20
55.990309437400001
 30
0.0
  0
SEQEND
  5
303
  8
TOP_TAPE
  0
POLYLINE
  5
1EE
  8
TOP_TAPE
 66
     1
 10
0.0
 20
0.0
 30
0.0
 70
   128
 40
0.5
 41
0.5
  0
VERTEX
  5
304
  8
TOP_TAPE
 10
337.20408098447609
 20
97.775486334443187
 30
0.0
  0
VERTEX
  5
305
  8
TOP_TAPE
 10
333.17285316620001
 20
76.918000047360451
 30
0.0
  0
SEQEND
  5
306
  8
TOP_TAPE
  0
POLYLINE
  5
1F0
  8
BOTTOM_TAPE
 66
     1
 10
0.0
 20
0.0
 30
0.0
 70
   128
 40
0.5
 41
0.5
  0
VERTEX
  5
307
  8
BOTTOM_TAPE
 10
81.070883084931666
 20
258.95616256299962
 30
0.0
  0
VERTEX
  5
308
  8
BOTTOM_TAPE
 10
121.1072449582949
 20
177.85473788072281
 30
0.0
 42
0.2546628651549995
  0
VERTEX
  5
309
  8
BOTTOM_TAPE
 10
125.40910655623129
 20
174.82555212695561
 30
0.0
  0
VERTEX
  5
30A
  8
BOTTOM_TAPE
 10
234.3369938718954
 20
162.2669933531709
 30
0.0
 42
-0.3374774930043046
  0
VERTEX
  5
30B
  8
BOTTOM_TAPE
 10
250.4988734680791
 20
146.72846382670889
 30
0.0
  0
VERTEX
  5
30C
  8
BOTTOM_TAPE
 10
255.3691497767318
 20
115.37606008947409
 30
0.0
 42
0.3954155257123396
  0
VERTEX
  5
30D
  8
BOTTOM_TAPE
 10
261.29558233017337
 20
110.7423191116239
 30
0.0
  0
VERTEX
  5
30E
  8
BOTTOM_TAPE
 10
315.0192424195219
 20
115.5636732221889
 30
0.0
 42
-0.4334258129761403
  0
VERTEX
  5
30F
  8
BOTTOM_TAPE
 10
335.16736556932182
 20
97.588292289599991
 30
0.0
 42
-0.4334258129761403
  0
SEQEND
  5
310
  8
BOTTOM_TAPE
  0
POLYLINE
  5
1F1
  8
BOTTOM_TAPE
 66
     1
 10
0.0
 20
0.0
 30
0.0
 70
   128
 40
0.5
 41
0.5
  0
VERTEX
  5
311
  8
BOTTOM_TAPE
 10
66.723837201530614
 20
251.8736295119235
 30
0.0
  0
VERTEX
  5
312
  8
BOTTOM_TAPE
 10
106.76019907489381
 20
170.77220482964671
 30
0.0
 42
0.2546628651549994
  0
VERTEX
  5
313
  8
BOTTOM_TAPE
 10
123.5765671395546
 20
158.93084233764759
 30
0.0
  0
VERTEX
  5
314
  8
BOTTOM_TAPE
 10
232.50445445521859
 20
146.37228356386291
 30
0.0
 42
-0.3374774930043011
  0
VERTEX
  5
315
  8
BOTTOM_TAPE
 10
234.6884922384867
 20
144.2724822765031
 30
0.0
  0
VERTEX
  5
316
  8
BOTTOM_TAPE
 10
239.55876854713941
 20
112.9200785392683
 30
0.0
 42
0.3954155257123431
  0
VERTEX
  5
317
  8
BOTTOM_TAPE
 10
262.7257321651382
 20
94.806363807672113
 30
0.0
  0
VERTEX
  5
318
  8
BOTTOM_TAPE
 10
316.44939225448672
 20
99.627717918237124
 30
0.0
 42
-0.3875994373026096
  0
VERTEX
  5
319
  8
BOTTOM_TAPE
 10
319.1319157984293
 20
97.588292289600005
 30
0.0
 42
-0.3875994373026096
  0
SEQEND
  5
31A
  8
BOTTOM_TAPE
  0
POLYLINE
  5
1F2
  8
BOTTOM_TAPE
 66
     1
 10
0.0
 20
0.0
 30
0.0
 70
   128
 40
0.5
 41
0.5
  0
VERTEX
  5
31B
  8
BOTTOM_TAPE
 10
67.620527569243222
 20
252.31628782761581
 30
0.0
  0
VERTEX
  5
31C
  8
BOTTOM_TAPE
 10
107.6568894426064
 20
171.214863145339
 30
0.0
 42
0.2546628651549982
  0
VERTEX
  5
31D
  8
BOTTOM_TAPE
 10
123.6911008530969
 20
159.92426169947939
 30
0.0
  0
VERTEX
  5
31E
  8
BOTTOM_TAPE
 10
232.61898816876089
 20
147.36570292569459
 30
0.0
 42
-0.3374774930043091
  0
VERTEX
  5
31F
  8
BOTTOM_TAPE
 10
235.67664106533621
 20
144.42598112339101
 30
0.0
  0
VERTEX
  5
320
  8
BOTTOM_TAPE
 10
240.54691737398889
 20
113.0735773861562
 30
0.0
 42
0.3954155257123428
  0
VERTEX
  5
321
  8
BOTTOM_TAPE
 10
262.63634780045288
 20
95.802361014169108
 30
0.0
  0
VERTEX
  5
322
  8
BOTTOM_TAPE
 10
316.36000788980141
 20
100.6237151247341
 30
0.0
 42
-0.4026654789281318
  0
VERTEX
  5
323
  8
BOTTOM_TAPE
 10
320.14373043703898
 20
97.588292289600005
 30
0.0
 42
-0.4026654789281318
  0
SEQEND
  5
324
  8
BOTTOM_TAPE
  0
POLYLINE
  5
1F3
  8
BOTTOM_TAPE
 66
     1
 10
0.0
 20
0.0
 30
0.0
 70
   128
 40
0.5
 41
0.5
  0
VERTEX
  5
325
  8
BOTTOM_TAPE
 10
68.517217936955774
 20
252.75894614330801
 30
0.0
  0
VERTEX
  5
326
  8
BOTTOM_TAPE
 10
108.55357981031899
 20
171.65752146103119
 30
0.0
 42
0.2546628651549988
  0
VERTEX
  5
327
  8
BOTTOM_TAPE
 10
123.8056345666392
 20
160.9176810613111
 30
0.0
  0
VERTEX
  5
328
  8
BOTTOM_TAPE
 10
232.73352188230319
 20
148.35912228752639
 30
0.0
 42
-0.3374774930043052
  0
VERTEX
  5
329
  8
BOTTOM_TAPE
 10
236.66478989218581
 20
144.57947997027881
 30
0.0
  0
VERTEX
  5
32A
  8
BOTTOM_TAPE
 10
241.53506620083849
 20
113.2270762330441
 30
0.0
 42
0.3954155257123413
  0
VERTEX
  5
32B
  8
BOTTOM_TAPE
 10
262.54696343576762
 20
96.798358220666074
 30
0.0
  0
VERTEX
  5
32C
  8
BOTTOM_TAPE
 10
316.27062352511609
 20
101.6197123312311
 30
0.0
 42
-0.411056669141446
  0
VERTEX
  5
32D
  8
BOTTOM_TAPE
 10
321.15023957226617
 20
97.588292289600005
 30
0.0
 42
-0.411056669141446
  0
SEQEND
  5
32E
  8
BOTTOM_TAPE
  0
POLYLINE
  5
1F4
  8
BOTTOM_TAPE
 66
     1
 10
0.0
 20
0.0
 30
0.0
 70
   128
 40
4.5
 41
4.5
  0
VERTEX
  5
32F
  8
BOTTOM_TAPE
 10
71.207289040093428
 20
254.08692109038481
 30
0.0
  0
VERTEX
  5
330
  8
BOTTOM_TAPE
 10
111.24365091345661
 20
172.98549640810799
 30
0.0
 42
0.254662865154999
  0
VERTEX
  5
331
  8
BOTTOM_TAPE
 10
124.149235707266
 20
163.89793914680641
 30
0.0
  0
VERTEX
  5
332
  8
BOTTOM_TAPE
 10
233.0771230229301
 20
151.3393803730217
 30
0.0
 42
-0.3374774930043051
  0
VERTEX
  5
333
  8
BOTTOM_TAPE
 10
239.6292363727344
 20
145.03997651094241
 30
0.0
  0
VERTEX
  5
334
  8
BOTTOM_TAPE
 10
244.49951268138699
 20
113.6875727737077
 30
0.0
 42
0.3954155257123403
  0
VERTEX
  5
335
  8
BOTTOM_TAPE
 10
262.27881034171162
 20
99.786349840157044
 30
0.0
  0
VERTEX
  5
336
  8
BOTTOM_TAPE
 10
316.0024704310602
 20
104.607703950722
 30
0.0
 42
-0.4228487091928618
  0
VERTEX
  5
337
  8
BOTTOM_TAPE
 10
324.1593068680022
 20
97.588292289600034
 30
0.0
 42
-0.4228487091928618
  0
SEQEND
  5
338
  8
BOTTOM_TAPE
  0
POLYLINE
  5
1F5
  8
BOTTOM_TAPE
 66
     1
 10
0.0
 20
0.0
 30
0.0
 70
   128
 40
0.5
 41
0.5
  0
VERTEX
  5
339
  8
BOTTOM_TAPE
 10
73.89736014323114
 20
255.4148960374616
 30
0.0
  0
VERTEX
  5
33A
  8
BOTTOM_TAPE
 10
113.9337220165943
 20
174.31347135518479
 30
0.0
 42
0.2546628651550002
  0
VERTEX
  5
33B
  8
BOTTOM_TAPE
 10
124.4928368478929
 20
166.8781972323016
 30
0.0
  0
VERTEX
  5
33C
  8
BOTTOM_TAPE
 10
233.420724163557
 20
154.31963845851689
 30
0.0
 42
-0.3374774930043028
  0
VERTEX
  5
33D
  8
BOTTOM_TAPE
 10
242.5936828532829
 20
145.50047305160601
 30
0.0
  0
VERTEX
  5
33E
  8
BOTTOM_TAPE
 10
247.46395916193561
 20
114.1480693143712
 30
0.0
 42
0.3954155257123387
  0
VERTEX
  5
33F
  8
BOTTOM_TAPE
 10
262.01065724765567
 20
102.7743414596479
 30
0.0
  0
VERTEX
  5
340
  8
BOTTOM_TAPE
 10
315.73431733700431
 20
107.595695570213
 30
0.0
 42
-0.427923117075218
  0
VERTEX
  5
341
  8
BOTTOM_TAPE
 10
327.16318152279717
 20
97.588292289600005
 30
0.0
 42
-0.427923117075218
  0
SEQEND
  5
342
  8
BOTTOM_TAPE
  0
POLYLINE
  5
1F6
  8
BOTTOM_TAPE
 66
     1
 10
0.0
 20
0.0
 30
0.0
 70
   128
 40
0.5
 41
0.5
  0
VERTEX
  5
343
  8
BOTTOM_TAPE
 10
74.794050510943734
 20
255.8575543531538
 30
0.0
  0
VERTEX
  5
344
  8
BOTTOM_TAPE
 10
114.8304123843069
 20
174.7561296708771
 30
0.0
 42
0.2546628651549991
  0
VERTEX
  5
345
  8
BOTTOM_TAPE
 10
124.6073705614352
 20
167.8716165941334
 30
0.0
  0
VERTEX
  5
346
  8
BOTTOM_TAPE
 10
233.5352578770993
 20
155.31305782034869
 30
0.0
 42
-0.3374774930043047
  0
VERTEX
  5
347
  8
BOTTOM_TAPE
 10
243.58183168013241
 20
145.65397189849389
 30
0.0
  0
VERTEX
  5
348
  8
BOTTOM_TAPE
 10
248.45210798878509
 20
114.3015681612591
 30
0.0
 42
0.3954155257123393
  0
VERTEX
  5
349
  8
BOTTOM_TAPE
 10
261.92127288297041
 20
103.77033866614489
 30
0.0
  0
VERTEX
  5
34A
  8
BOTTOM_TAPE
 10
315.644932972319
 20
108.59169277671
 30
0.0
 42
-0.4290281642686061
  0
VERTEX
  5
34B
  8
BOTTOM_TAPE
 10
328.16402321233647
 20
97.588292289600034
 30
0.0
 42
-0.4290281642686061
  0
SEQEND
  5
34C
  8
BOTTOM_TAPE
  0
POLYLINE
  5
1F7
  8
BOTTOM_TAPE
 66
     1
 10
0.0
 20
0.0
 30
0.0
 70
   128
 40
0.5
 41
0.5
  0
VERTEX
  5
34D
  8
BOTTOM_TAPE
 10
75.690740878656243
 20
256.30021266884609
 30
0.0
  0
VERTEX
  5
34E
  8
BOTTOM_TAPE
 10
115.7271027520195
 20
175.1987879865693
 30
0.0
 42
0.2546628651549993
  0
VERTEX
  5
34F
  8
BOTTOM_TAPE
 10
124.7219042749776
 20
168.86503595596511
 30
0.0
  0
VERTEX
  5
350
  8
BOTTOM_TAPE
 10
233.6497915906416
 20
156.3064771821804
 30
0.0
 42
-0.337477493004304
  0
VERTEX
  5
351
  8
BOTTOM_TAPE
 10
244.56998050698189
 20
145.80747074538169
 30
0.0
  0
VERTEX
  5
352
  8
BOTTOM_TAPE
 10
249.4402568156346
 20
114.455067008147
 30
0.0
 42
0.395415525712342
  0
VERTEX
  5
353
  8
BOTTOM_TAPE
 10
261.83188851828521
 20
104.7663358726419
 30
0.0
  0
VERTEX
  5
354
  8
BOTTOM_TAPE
 10
315.55554860763368
 20
109.587689983207
 30
0.0
 42
-0.4299569623936109
  0
VERTEX
  5
355
  8
BOTTOM_TAPE
 10
329.16473008799312
 20
97.588292289600005
 30
0.0
 42
-0.4299569623936109
  0
SEQEND
  5
356
  8
BOTTOM_TAPE
  0
POLYLINE
  5
1F8
  8
BOTTOM_TAPE
 66
     1
 10
0.0
 20
0.0
 30
0.0
 70
   128
 40
4.5
 41
4.5
  0
VERTEX
  5
357
  8
BOTTOM_TAPE
 10
78.380811981793954
 20
257.6281876159228
 30
0.0
  0
VERTEX
  5
358
  8
BOTTOM_TAPE
 10
118.4171738551572
 20
176.5267629336461
 30
0.0
 42
0.2546628651549985
  0
VERTEX
  5
359
  8
BOTTOM_TAPE
 10
125.06550541560441
 20
171.84529404146039
 30
0.0
  0
VERTEX
  5
35A
  8
BOTTOM_TAPE
 10
233.9933927312685
 20
159.28673526767571
 30
0.0
 42
-0.337477493004305
  0
VERTEX
  5
35B
  8
BOTTOM_TAPE
 10
247.53442698753051
 20
146.26796728604529
 30
0.0
  0
VERTEX
  5
35C
  8
BOTTOM_TAPE
 10
252.40470329618319
 20
114.9155635488105
 30
0.0
 42
0.3954155257123402
  0
VERTEX
  5
35D
  8
BOTTOM_TAPE
 10
261.56373542422932
 20
107.7543274921329
 30
0.0
  0
VERTEX
  5
35E
  8
BOTTOM_TAPE
 10
315.28739551357779
 20
112.5756816026979
 30
0.0
 42
-0.432026174594944
  0
VERTEX
  5
35F
  8
BOTTOM_TAPE
 10
332.16630304120281
 20
97.588292289600005
 30
0.0
 42
-0.432026174594944
  0
SEQEND
  5
360
  8
BOTTOM_TAPE
  0
POLYLINE
  5
1F9
  8
BOTTOM_TAPE
 66
     1
 10
0.0
 20
0.0
 30
0.0
 70
   128
 40
0.5
 41
0.5
  0
VERTEX
  5
361
  8
BOTTOM_TAPE
 10
82.864263820356754
 20
259.84147919438419
 30
0.0
  0
VERTEX
  5
362
  8
BOTTOM_TAPE
 10
122.90062569372
 20
178.74005451210741
 30
0.0
 42
0.2546628651550058
  0
VERTEX
  5
363
  8
BOTTOM_TAPE
 10
125.63817398331589
 20
176.81239085061921
 30
0.0
  0
VERTEX
  5
364
  8
BOTTOM_TAPE
 10
234.56606129897989
 20
164.2538320768345
 30
0.0
 42
-0.3374774930043042
  0
VERTEX
  5
365
  8
BOTTOM_TAPE
 10
252.4751711217782
 20
147.0354615204846
 30
0.0
  0
VERTEX
  5
366
  8
BOTTOM_TAPE
 10
257.34544743043091
 20
115.68305778324979
 30
0.0
 42
0.3954155257123412
  0
VERTEX
  5
367
  8
BOTTOM_TAPE
 10
261.1168136008028
 20
112.7343135246178
 30
0.0
  0
VERTEX
  5
368
  8
BOTTOM_TAPE
 10
314.84047369015133
 20
117.5556676351829
 30
0.0
 42
-0.4341318008826847
  0
VERTEX
  5
369
  8
BOTTOM_TAPE
 10
337.1679010809824
 20
97.588292289599991
 30
0.0
 42
-0.4341318008826847
  0
SEQEND
  5
36A
  8
BOTTOM_TAPE
  0
POLYLINE
  5
211
  8
BOTTOM_TAPE
 66
     1
 10
0.0
 20
0.0
 30
0.0
 70
   128
 40
0.5
 41
0.5
  0
VERTEX
  5
36B
  8
BOTTOM_TAPE
 10
335.1945796364999
 20
97.775486334443187
 30
0.0
  0
VERTEX
  5
36C
  8
BOTTOM_TAPE
 10
332.1728531661999
 20
76.990309437400001
 30
0.0
  0
VERTEX
  5
36D
  8
BOTTOM_TAPE
 10
332.1728531661999
 20
55.990309437400001
 30
0.0
  0
SEQEND
  5
36E
  8
BOTTOM_TAPE
  0
POLYLINE
  5
212
  8
BOTTOM_TAPE
 66
     1
 10
0.0
 20
0.0
 30
0.0
 70
   128
 40
4.5277179192238632
 41
1.5
  0
VERTEX
  5
36F
  8
BOTTOM_TAPE
 10
332.18010148220287
 20
97.775486334443187
 30
0.0
  0
VERTEX
  5
370
  8
BOTTOM_TAPE
 10
330.67285316620001
 20
77.327675682921154
 30
0.0
 40
1.5
  0
VERTEX
  5
371
  8
BOTTOM_TAPE
 10
330.67285316620001
 20
55.990309437400001
 30
0.0
 40
1.5
  0
SEQEND
  5
372
  8
BOTTOM_TAPE
  0
POLYLINE
  5
213
  8
BOTTOM_TAPE
 66
     1
 10
0.0
 20
0.0
 30
0.0
 70
   128
 40
4.5
 41
1.5
  0
VERTEX
  5
373
  8
BOTTOM_TAPE
 10
324.1593068680022
 20
97.588292289599991
 30
0.0
  0
VERTEX
  5
374
  8
BOTTOM_TAPE
 10
325.67285316620001
 20
76.990309437400001
 30
0.0
 40
1.5
  0
VERTEX
  5
375
  8
BOTTOM_TAPE
 10
325.67285316620001
 20
55.990309437400001
 30
0.0
 40
1.5
  0
SEQEND
  5
376
  8
BOTTOM_TAPE
  0
POLYLINE
  5
214
  8
BOTTOM_TAPE
 66
     1
 10
0.0
 20
0.0
 30
0.0
 70
   128
 40
0.5
 41
0.5
  0
VERTEX
  5
377
  8
BOTTOM_TAPE
 10
329.16473008799329
 20
97.588292289600005
 30
0.0
  0
VERTEX
  5
378
  8
BOTTOM_TAPE
 10
329.17285316620001
 20
76.990309437400001
 30
0.0
  0
VERTEX
  5
379
  8
BOTTOM_TAPE
 10
329.17285316620001
 20
55.990309437400001
 30
0.0
  0
SEQEND
  5
37A
  8
BOTTOM_TAPE
  0
POLYLINE
  5
215
  8
BOTTOM_TAPE
 66
     1
 10
0.0
 20
0.0
 30
0.0
 70
   128
 40
0.5
 41
0.5
  0
VERTEX
  5
37B
  8
BOTTOM_TAPE
 10
328.16402321233647
 20
97.588292289599991
 30
0.0
  0
VERTEX
  5
37C
  8
BOTTOM_TAPE
 10
328.17285316620001
 20
76.990309437400001
 30
0.0
  0
VERTEX
  5
37D
  8
BOTTOM_TAPE
 10
328.17285316620001
 20
55.990309437400001
 30
0.0
  0
SEQEND
  5
37E
  8
BOTTOM_TAPE
  0
POLYLINE
  5
216
  8
BOTTOM_TAPE
 66
     1
 10
0.0
 20
0.0
 30
0.0
 70
   128
 40
0.5
 41
0.5
  0
VERTEX
  5
37F
  8
BOTTOM_TAPE
 10
327.16318152279717
 20
97.588292289599991
 30
0.0
  0
VERTEX
  5
380
  8
BOTTOM_TAPE
 10
327.17285316620001
 20
76.990309437400001
 30
0.0
  0
VERTEX
  5
381
  8
BOTTOM_TAPE
 10
327.17285316620001
 20
55.990309437400001
 30
0.0
  0
SEQEND
  5
382
  8
BOTTOM_TAPE
  0
POLYLINE
  5
217
  8
BOTTOM_TAPE
 66
     1
 10
0.0
 20
0.0
 30
0.0
 70
   128
 40
0.5
 41
0.5
  0
VERTEX
  5
383
  8
BOTTOM_TAPE
 10
321.15023957226617
 20
97.588292289599991
 30
0.0
  0
VERTEX
  5
384
  8
BOTTOM_TAPE
 10
324.17285316620001
 20
76.990309437400001
 30
0.0
  0
VERTEX
  5
385
  8
BOTTOM_TAPE
 10
324.17285316620001
 20
55.990309437400001
 30
0.0
  0
SEQEND
  5
386
  8
BOTTOM_TAPE
  0
POLYLINE
  5
218
  8
BOTTOM_TAPE
 66
     1
 10
0.0
 20
0.0
 30
0.0
 70
   128
 40
0.5
 41
0.5
  0
VERTEX
  5
387
  8
BOTTOM_TAPE
 10
320.14373043703898
 20
97.588292289600005
 30
0.0
  0
VERTEX
  5
388
  8
BOTTOM_TAPE
 10
323.17285316620001
 20
76.990309437400001
 30
0.0
  0
VERTEX
  5
389
  8
BOTTOM_TAPE
 10
323.17285316620001
 20
55.990309437400001
 30
0.0
  0
SEQEND
  5
38A
  8
BOTTOM_TAPE
  0
POLYLINE
  5
219
  8
BOTTOM_TAPE
 66
     1
 10
0.0
 20
0.0
 30
0.0
 70
   128
 40
0.5
 41
0.5
  0
VERTEX
  5
38B
  8
BOTTOM_TAPE
 10
319.1319157984293
 20
97.588292289600005
 30
0.0
  0
VERTEX
  5
38C
  8
BOTTOM_TAPE
 10
322.17285316620001
 20
76.990309437400001
 30
0.0
  0
VERTEX
  5
38D
  8
BOTTOM_TAPE
 10
322.17285316620001
 20
55.990309437400001
 30
0.0
  0
SEQEND
  5
38E
  8
BOTTOM_TAPE
  0
LINE
  5
21D
  8
BOTTOM_TAPE
 10
322.17285316620001
 20
55.990309437400001
 30
0.0
 11
322.17285316620001
 21
77.327675682921154
 31
0.0
  0
LINE
  5
21E
  8
BOTTOM_TAPE
 10
323.17285316620001
 20
55.990309437400001
 30
0.0
 11
323.17285316620001
 21
77.327675682921154
 31
0.0
  0
LINE
  5
21F
  8
BOTTOM_TAPE
 10
324.17285316620001
 20
55.990309437400001
 30
0.0
 11
324.17285316620001
 21
77.327675682921154
 31
0.0
  0
POLYLINE
  5
222
  8
BOTTOM_TAPE
 66
     1
 10
0.0
 20
0.0
 30
0.0
 70
   128
 40
0.5
 41
0.5
  0
VERTEX
  5
38F
  8
BOTTOM_TAPE
 10
335.17285316620001
 20
76.918000047360451
 30
0.0
  0
VERTEX
  5
390
  8
BOTTOM_TAPE
 10
335.17285316620001
 20
55.990309437400001
 30
0.0
  0
SEQEND
  5
391
  8
BOTTOM_TAPE
  0
LINE
  5
223
  8
BOTTOM_TAPE
 10
332.1728531661999
 20
55.990309437400001
 30
0.0
 11
332.1728531661999
 21
77.327675682921154
 31
0.0
  0
LINE
  5
224
  8
BOTTOM_TAPE
 10
330.67285316620001
 20
55.990309437400001
 30
0.0
 11
330.67285316620001
 21
77.327675682921154
 31
0.0
  0
LINE
  5
225
  8
BOTTOM_TAPE
 10
325.67285316620001
 20
55.990309437400001
 30
0.0
 11
325.67285316620001
 21
77.327675682921154
 31
0.0
  0
LINE
  5
226
  8
BOTTOM_TAPE
 10
327.17285316620001
 20
55.990309437400001
 30
0.0
 11
327.17285316620001
 21
77.327675682921154
 31
0.0
  0
LINE
  5
227
  8
BOTTOM_TAPE
 10
329.17285316620001
 20
55.990309437400001
 30
0.0
 11
329.17285316620001
 21
77.327675682921154
 31
0.0
  0
LINE
  5
228
  8
BOTTOM_TAPE
 10
328.17285316620001
 20
55.990309437400001
 30
0.0
 11
328.17285316620001
 21
77.327675682921154
 31
0.0
  0
POLYLINE
  5
24A
  8
BOTTOM_TAPE
 66
     1
 10
0.0
 20
0.0
 30
0.0
 70
   128
 40
0.5
 41
0.5
  0
VERTEX
  5
392
  8
BOTTOM_TAPE
 10
337.1679010809824
 20
97.588292289599991
 30
0.0
  0
VERTEX
  5
393
  8
BOTTOM_TAPE
 10
335.17285316620001
 20
76.918000047360451
 30
0.0
  0
SEQEND
  5
394
  8
BOTTOM_TAPE
  0
ENDSEC
  0
EOF
