  0
SECTION
  2
HEADER
  9
$ACADVER
  1
AC1009
  9
$INSBASE
 10
0.0
 20
0.0
 30
0.0
  9
$EXTMIN
 10
21.096885712799988
 20
98.967402393768893
 30
0.0
  9
$EXTMAX
 10
334.20412749758032
 20
220.90688486991621
 30
0.0
  9
$LIMMIN
 10
0.0
 20
0.0
  9
$LIMMAX
 10
420.0
 20
297.0
  9
$ORTHOMODE
 70
     0
  9
$REGENMODE
 70
     1
  9
$FILLMODE
 70
     1
  9
$QTEXTMODE
 70
     0
  9
$MIRRTEXT
 70
     1
  9
$DRAGMODE
 70
     2
  9
$LTSCALE
 40
23.100000000000001
  9
$OSMODE
 70
     1
  9
$ATTMODE
 70
     1
  9
$TEXTSIZE
 40
0.0
  9
$TRACEWID
 40
0.05
  9
$TEXTSTYLE
  7
STANDARD
  9
$CLAYER
  8
0
  9
$CELTYPE
  6
BYLAYER
  9
$CECOLOR
 62
   256
  9
$DIMSCALE
 40
1.0
  9
$DIMASZ
 40
5.0
  9
$DIMEXO
 40
2.625
  9
$DIMDLI
 40
15.960000000000001
  9
$DIMRND
 40
0.0
  9
$DIMDLE
 40
0.0
  9
$DIMEXE
 40
7.5599999999999987
  9
$DIMTP
 40
0.0
  9
$DIMTM
 40
0.0
  9
$DIMTXT
 40
4.74609375
  9
$DIMCEN
 40
3.7799999999999989
  9
$DIMTSZ
 40
0.0
  9
$DIMTOL
 70
     0
  9
$DIMLIM
 70
     0
  9
$DIMTIH
 70
     1
  9
$DIMTOH
 70
     1
  9
$DIMSE1
 70
     0
  9
$DIMSE2
 70
     0
  9
$DIMTAD
 70
     0
  9
$DIMZIN
 70
     0
  9
$DIMBLK
  1

  9
$DIMASO
 70
     1
  9
$DIMSHO
 70
     1
  9
$DIMPOST
  1

  9
$DIMAPOST
  1

  9
$DIMALT
 70
     0
  9
$DIMALTD
 70
     2
  9
$DIMALTF
 40
25.399999999999999
  9
$DIMLFAC
 40
1.0
  9
$DIMTOFL
 70
     0
  9
$DIMTVP
 40
0.0
  9
$DIMTIX
 70
     0
  9
$DIMSOXD
 70
     0
  9
$DIMSAH
 70
     0
  9
$DIMBLK1
  1

  9
$DIMBLK2
  1

  9
$DIMSTYLE
  2
STANDARD
  9
$DIMCLRD
 70
     0
  9
$DIMCLRE
 70
     0
  9
$DIMCLRT
 70
     0
  9
$DIMTFAC
 40
1.0
  9
$DIMGAP
 40
0.09
  9
$LUNITS
 70
     2
  9
$LUPREC
 70
     4
  9
$SKETCHINC
 40
0.1
  9
$FILLETRAD
 40
15.0
  9
$AUNITS
 70
     0
  9
$AUPREC
 70
     0
  9
$MENU
  1
acad
  9
$ELEVATION
 40
0.0
  9
$PELEVATION
 40
0.0
  9
$THICKNESS
 40
0.0
  9
$LIMCHECK
 70
     0
  9
$BLIPMODE
 70
     0
  9
$CHAMFERA
 40
0.0
  9
$CHAMFERB
 40
0.0
  9
$SKPOLY
 70
     0
  9
$TDCREATE
 40
2451485.8161960989
  9
$TDUPDATE
 40
2451491.594981018
  9
$TDINDWG
 40
0.2031061343
  9
$TDUSRTIMER
 40
0.2031061343
  9
$USRTIMER
 70
     1
  9
$ANGBASE
 50
0.0
  9
$ANGDIR
 70
     0
  9
$PDMODE
 70
     0
  9
$PDSIZE
 40
0.0
  9
$PLINEWID
 40
1.5
  9
$COORDS
 70
     1
  9
$SPLFRAME
 70
     0
  9
$SPLINETYPE
 70
     6
  9
$SPLINESEGS
 70
     8
  9
$ATTDIA
 70
     0
  9
$ATTREQ
 70
     1
  9
$HANDLING
 70
  4097
  9
$HANDSEED
  5
2D0
  9
$SURFTAB1
 70
     6
  9
$SURFTAB2
 70
     6
  9
$SURFTYPE
 70
     6
  9
$SURFU
 70
     6
  9
$SURFV
 70
     6
  9
$UCSNAME
  2

  9
$UCSORG
 10
0.0
 20
0.0
 30
0.0
  9
$UCSXDIR
 10
1.0
 20
0.0
 30
0.0
  9
$UCSYDIR
 10
0.0
 20
1.0
 30
0.0
  9
$PUCSNAME
  2

  9
$PUCSORG
 10
0.0
 20
0.0
 30
0.0
  9
$PUCSXDIR
 10
1.0
 20
0.0
 30
0.0
  9
$PUCSYDIR
 10
0.0
 20
1.0
 30
0.0
  9
$USERI1
 70
     0
  9
$USERI2
 70
     0
  9
$USERI3
 70
     0
  9
$USERI4
 70
     0
  9
$USERI5
 70
     0
  9
$USERR1
 40
0.0
  9
$USERR2
 40
0.0
  9
$USERR3
 40
0.0
  9
$USERR4
 40
0.0
  9
$USERR5
 40
0.0
  9
$WORLDVIEW
 70
     1
  9
$SHADEDGE
 70
     3
  9
$SHADEDIF
 70
    70
  9
$TILEMODE
 70
     1
  9
$MAXACTVP
 70
    16
  9
$PLIMCHECK
 70
     0
  9
$PEXTMIN
 10
1.0000000000000000E+020
 20
1.0000000000000000E+020
 30
1.0000000000000000E+020
  9
$PEXTMAX
 10
-1.0000000000000000E+020
 20
-1.0000000000000000E+020
 30
-1.0000000000000000E+020
  9
$PLIMMIN
 10
0.0
 20
0.0
  9
$PLIMMAX
 10
12.0
 20
9.0
  9
$UNITMODE
 70
     0
  9
$VISRETAIN
 70
     0
  9
$PLINEGEN
 70
     1
  9
$PSLTSCALE
 70
     0
  0
ENDSEC
  0
SECTION
  2
TABLES
  0
TABLE
  2
VPORT
 70
     3
  0
VPORT
  2
*ACTIVE
 70
     0
 10
0.0
 20
0.0
 11
1.0
 21
1.0
 12
164.0943611837105
 22
168.65659051133321
 13
0.0
 23
0.0
 14
1.0
 24
1.0
 15
0.0
 25
0.0
 16
0.0
 26
0.0
 36
1.0
 17
0.0
 27
0.0
 37
0.0
 40
212.70660527054281
 41
1.6549789621318369
 42
50.0
 43
0.0
 44
0.0
 50
0.0
 51
0.0
 71
     0
 72
   100
 73
     1
 74
     1
 75
     0
 76
     0
 77
     0
 78
     0
  0
ENDTAB
  0
TABLE
  2
LTYPE
 70
     6
  0
LTYPE
  2
CONTINUOUS
 70
     0
  3
Solid line
 72
    65
 73
     0
 40
0.0
  0
LTYPE
  2
CENTER
 70
     0
  3
____ _ ____ _ ____ _ ____ _ ____ _ ____ _ ____
 72
    65
 73
     4
 40
0.6
 49
0.375
 49
-0.075
 49
0.075
 49
-0.075
  0
LTYPE
  2
HIDDEN
 70
     0
  3
- - - - - - - - - - - - - - - - - - - -
 72
    65
 73
     2
 40
0.2
 49
0.1
 49
-0.1
  0
LTYPE
  2
PHANTOM
 70
     0
  3
_____ _ _ _____ _ _ _____ _ _ _____
 72
    65
 73
     6
 40
0.8
 49
0.45
 49
-0.05
 49
0.1
 49
-0.05
 49
0.1
 49
-0.05
  0
LTYPE
  2
DOT
 70
     0
  3
. . . . . . . . . . . . . . . . . . . .
 72
    65
 73
     2
 40
0.2
 49
0.1
 49
-0.1
  0
LTYPE
  2
DASHED
 70
     0
  3
- - - - - - - - - - - - - - - - - - - -
 72
    65
 73
     2
 40
0.2
 49
0.1
 49
-0.1
  0
ENDTAB
  0
TABLE
  2
LAYER
 70
     7
  0
LAYER
  2
0
 70
     0
 62
     7
  6
CONTINUOUS
  0
LAYER
  2
DEFAULT_1
 70
     0
 62
    -7
  6
CENTER
  0
LAYER
  2
DEFAULT_2
 70
     0
 62
    -8
  6
HIDDEN
  0
LAYER
  2
DEFAULT_3
 70
     0
 62
    -7
  6
PHANTOM
  0
LAYER
  2
TOP_TAPE
 70
     0
 62
     7
  6
CONTINUOUS
  0
LAYER
  2
BOTTOM_TAPE
 70
     0
 62
     7
  6
CONTINUOUS
  0
LAYER
  2
DEFPOINTS
 70
     0
 62
    -7
  6
CONTINUOUS
  0
ENDTAB
  0
TABLE
  2
STYLE
 70
     1
  0
STYLE
  2
STANDARD
 70
     0
 40
0.0
 41
1.0
 50
0.0
 71
     0
 42
0.0
  3
txt
  4

  0
ENDTAB
  0
TABLE
  2
VIEW
 70
     0
  0
ENDTAB
  0
TABLE
  2
UCS
 70
     0
  0
ENDTAB
  0
TABLE
  2
APPID
 70
     1
  0
APPID
  2
ACAD
 70
     0
  0
ENDTAB
  0
TABLE
  2
DIMSTYLE
 70
     1
  0
DIMSTYLE
  2
STANDARD
 70
     0
  3

  4

  5

  6

  7

 40
1.0
 41
5.0
 42
2.625
 43
15.960000000000001
 44
7.5599999999999987
 45
0.0
 46
0.0
 47
0.0
 48
0.0
140
4.74609375
141
3.7799999999999989
142
0.0
143
25.399999999999999
144
1.0
145
0.0
146
1.0
147
0.09
 71
     0
 72
     0
 73
     1
 74
     1
 75
     0
 76
     0
 77
     0
 78
     0
170
     0
171
     2
172
     0
173
     0
174
     0
175
     0
176
     0
177
     0
178
     0
  0
ENDTAB
  0
ENDSEC
  0
SECTION
  2
BLOCKS
  0
BLOCK
  8
0
  2
$MODEL_SPACE
 70
     0
 10
0.0
 20
0.0
 30
0.0
  3
$MODEL_SPACE
  1

  0
ENDBLK
  5
F3
  8
0
  0
BLOCK
 67
     1
  8
0
  2
$PAPER_SPACE
 70
     0
 10
0.0
 20
0.0
 30
0.0
  3
$PAPER_SPACE
  1

  0
ENDBLK
  5
F1
 67
     1
  8
0
  0
BLOCK
  8
0
  6
BYBLOCK
 62
     2
  2
*D0
 70
     1
 10
0.0
 20
0.0
 30
0.0
  3
*D0
  1

  0
TEXT
  5
30
  8
0
  6
BYBLOCK
 62
     2
 10
79.106508199299995
 20
212.60358295189999
 30
0.0
 40
4.0
  1
21.00
 50
17.14599990835552
 41
1.2000000064309291
 72
     5
 11
94.395414466099979
 21
217.3205043959
 31
0.0
  0
LINE
  5
32
  8
0
  6
BYBLOCK
 62
     2
 10
55.957441707800001
 20
192.11373303499991
 30
0.0
 11
51.607646647000003
 21
206.21267646149991
 31
0.0
  0
LINE
  5
33
  8
0
  6
BYBLOCK
 62
     2
 10
76.024131065500001
 20
198.3046924292
 30
0.0
 11
71.674336004699995
 21
212.40363585569989
 31
0.0
  0
LINE
  5
34
  8
0
  6
BYBLOCK
 62
     2
 10
52.4920694176
 20
203.3460065532999
 30
0.0
 11
62.5254140965
 21
206.44148625039989
 31
0.0
  0
LINE
  5
35
  8
0
  6
BYBLOCK
 62
     2
 10
72.558758775300007
 20
209.53696594749991
 30
0.0
 11
62.5254140965
 21
206.44148625039989
 31
0.0
  0
LINE
  5
36
  8
0
  6
BYBLOCK
 62
     2
 10
62.5254140965
 20
206.44148625039989
 30
0.0
 11
94.690221966799996
 21
216.3649477589999
 31
0.0
  0
SOLID
  5
37
  8
0
  6
BYBLOCK
 62
     2
 10
57.505698670199997
 20
204.05559919539999
 30
0.0
 11
57.034006525899997
 21
205.58448981309991
 31
0.0
 12
52.4920694176
 22
203.3460065532999
 32
0.0
 13
52.4920694176
 23
203.3460065532999
 33
0.0
  0
SOLID
  5
38
  8
0
  6
BYBLOCK
 62
     2
 10
67.545129522799996
 20
208.8273733053
 30
0.0
 11
68.016821667100004
 21
207.2984826876
 31
0.0
 12
72.558758775300007
 22
209.53696594749991
 32
0.0
 13
72.558758775300007
 23
209.53696594749991
 33
0.0
  0
ENDBLK
  5
39
  8
0
  0
BLOCK
  8
0
  6
BYBLOCK
 62
     2
  2
*D1
 70
     1
 10
0.0
 20
0.0
 30
0.0
  3
*D1
  1

  0
TEXT
  5
3B
  8
0
  6
BYBLOCK
 62
     2
 10
35.36683275659999
 20
146.58070804729991
 30
0.0
 40
4.0
  1
81.09
 50
287.1460000001033
 41
1.1428571428562531
 72
     5
 11
40.083754199799998
 21
131.29180187
 31
0.0
  0
LINE
  5
3C
  8
0
  6
BYBLOCK
 62
     2
 10
54.635943615999999
 20
189.6130045825
 30
0.0
 11
21.096885712799988
 21
179.26556052250001
 31
0.0
  0
LINE
  5
3D
  8
0
  6
BYBLOCK
 62
     2
 10
80.931119750899995
 20
112.8628434437
 30
0.0
 11
45.003170257500003
 21
101.77838040829999
 31
0.0
  0
LINE
  5
3E
  8
0
  6
BYBLOCK
 62
     2
 10
23.963555621099999
 20
180.14998329310001
 30
0.0
 11
35.916697893399999
 21
141.40639323600001
 31
0.0
  0
LINE
  5
3F
  8
0
  6
BYBLOCK
 62
     2
 10
47.869840165799992
 20
102.66280317889991
 30
0.0
 11
35.916697893399999
 21
141.40639323600001
 31
0.0
  0
SOLID
  5
40
  8
0
  6
BYBLOCK
 62
     2
 10
24.673148263200002
 20
175.13635404059991
 30
0.0
 11
26.202038880900002
 21
175.60804618489991
 31
0.0
 12
23.963555621099999
 22
180.14998329310001
 32
0.0
 13
23.963555621099999
 23
180.14998329310001
 33
0.0
  0
SOLID
  5
41
  8
0
  6
BYBLOCK
 62
     2
 10
47.160247523599999
 20
107.6764324315
 30
0.0
 11
45.631356905899999
 21
107.2047402870999
 31
0.0
 12
47.869840165799992
 22
102.66280317889991
 32
0.0
 13
47.869840165799992
 23
102.66280317889991
 33
0.0
  0
ENDBLK
  5
42
  8
0
  0
BLOCK
  8
0
  6
BYBLOCK
 62
     2
  2
*D2
 70
     1
 10
0.0
 20
0.0
 30
0.0
  3
*D2
  1

  0
TEXT
  5
44
  8
0
  6
BYBLOCK
 62
     2
 10
242.45394736840001
 20
106.0690789474
 30
0.0
 40
4.0
  1
16.00
 41
1.1999999999999991
 72
     5
 11
258.45394736839989
 21
106.0690789474
 31
0.0
  0
LINE
  5
45
  8
0
  6
BYBLOCK
 62
     2
 10
268.50557469080002
 20
120.7136528729999
 30
0.0
 11
268.50557469080002
 21
102.0690789474
 31
0.0
  0
LINE
  5
46
  8
0
  6
BYBLOCK
 62
     2
 10
284.50557469080002
 20
120.7136528729999
 30
0.0
 11
284.50557469080002
 21
102.0690789474
 31
0.0
  0
LINE
  5
47
  8
0
  6
BYBLOCK
 62
     2
 10
268.50557469080002
 20
105.0690789474
 30
0.0
 11
276.50557469080002
 21
105.0690789474
 31
0.0
  0
LINE
  5
48
  8
0
  6
BYBLOCK
 62
     2
 10
276.50557469080002
 20
105.0690789474
 30
0.0
 11
242.45394736840001
 21
105.0690789474
 31
0.0
  0
LINE
  5
49
  8
0
  6
BYBLOCK
 62
     2
 10
284.50557469080002
 20
105.0690789474
 30
0.0
 11
276.50557469080002
 21
105.0690789474
 31
0.0
  0
SOLID
  5
4A
  8
0
  6
BYBLOCK
 62
     2
 10
273.50557469080002
 20
104.2690789474
 30
0.0
 11
273.50557469080002
 21
105.8690789474
 31
0.0
 12
268.50557469080002
 22
105.0690789474
 32
0.0
 13
268.50557469080002
 23
105.0690789474
 33
0.0
  0
SOLID
  5
4B
  8
0
  6
BYBLOCK
 62
     2
 10
279.50557469080002
 20
105.8690789474
 30
0.0
 11
279.50557469080002
 21
104.2690789474
 31
0.0
 12
284.50557469080002
 22
105.0690789474
 32
0.0
 13
284.50557469080002
 23
105.0690789474
 33
0.0
  0
ENDBLK
  5
4C
  8
0
  0
BLOCK
  8
0
  2
A$C3C16328E
 70
     0
 10
0.0
 20
0.0
 30
0.0
  3
A$C3C16328E
  1

  0
TEXT
  5
9E
  8
0
 10
32.666666419245807
 20
73.780869830274071
 30
0.0
 40
4.0
  1
TD-1002-346
1001
ACAD
1000
R13OBJECT
1002
{
1005
A2
1002
}
  0
TEXT
  5
9F
  8
0
 10
105.4888500576514
 20
5.0000001414411477
 30
0.0
 40
3.0
  1
HI/LOW TENSION
  0
TEXT
  5
A0
  8
0
 10
109.4888500576514
 20
0.0000001414411486
 30
0.0
 40
3.0
  1
CIRCUIT SIDE
1001
ACAD
1000
R13OBJECT
1002
{
1005
9F
1002
}
  0
TEXT
  5
A1
  8
0
 10
-0.0000002474208429
 20
67.114203163607414
 30
0.0
 40
4.0
  1
THIS SIDE IS THE COPPER SIDE
1001
ACAD
1000
R13OBJECT
1002
{
1005
A2
1002
}
  0
TEXT
  5
A2
  8
0
 10
17.666666419245811
 20
80.447536496940714
 30
0.0
 40
4.0
  1
TL/TR/BL/BR - M-04
  0
ENDBLK
  5
A4
  8
0
  0
ENDSEC
  0
SECTION
  2
ENTITIES
  0
DIMENSION
  5
4D
  8
0
 62
     2
  2
*D0
 10
72.558758775300007
 20
209.53696594749991
 30
0.0
 11
86.161346154200004
 21
216.8731569400999
 31
0.0
 13
55.957441707800001
 23
192.11373303499991
 33
0.0
 14
76.024131065500001
 24
198.3046924292
 34
0.0
 50
17.14600000000004
  0
DIMENSION
  5
4E
  8
0
 62
     2
  2
*D1
 10
47.869840165799992
 20
102.66280317889991
 30
0.0
 11
39.636406750399999
 21
139.52587013900001
 31
0.0
 13
54.635943615999999
 23
189.6130045825
 33
0.0
 14
80.931119750899995
 24
112.8628434437
 34
0.0
 50
287.1460000000007
  0
DIMENSION
  5
4F
  8
0
 62
     2
  2
*D2
 10
284.50557469080002
 20
105.0690789474
 30
0.0
 11
250.45394736840001
 21
108.0690789474
 31
0.0
 13
268.50557469080002
 23
120.7136528729999
 33
0.0
 14
284.50557469080002
 24
120.7136528729999
 34
0.0
  0
POLYLINE
  5
54
  8
0
 62
     3
 66
     1
 10
0.0
 20
0.0
 30
0.0
  0
VERTEX
  5
1B3
  8
0
 62
     3
 10
78.068307429599983
 20
126.0395854953999
 30
0.0
  0
VERTEX
  5
1B4
  8
0
 62
     3
 10
75.078403885900002
 20
133.02211226029991
 30
0.0
  0
VERTEX
  5
1B5
  8
0
 62
     3
 10
72.399699532400007
 20
139.6142965466
 30
0.0
  0
VERTEX
  5
1B6
  8
0
 62
     3
 10
70.229005018199999
 20
145.8554700798999
 30
0.0
  0
SEQEND
  5
1B7
  8
0
 62
     3
  0
POLYLINE
  5
5A
  8
0
 62
     3
 66
     1
 10
0.0
 20
0.0
 30
0.0
  0
VERTEX
  5
1B8
  8
0
 62
     3
 10
82.842233023099993
 20
113.4524586241
 30
0.0
  0
VERTEX
  5
1B9
  8
0
 62
     3
 10
81.482920615899999
 20
117.4964710890999
 30
0.0
  0
VERTEX
  5
1BA
  8
0
 62
     3
 10
79.876156878599986
 20
121.6912406954
 30
0.0
  0
VERTEX
  5
1BB
  8
0
 62
     3
 10
78.068307429599983
 20
126.0395854953999
 30
0.0
  0
SEQEND
  5
1BC
  8
0
 62
     3
  0
LINE
  5
60
  8
0
 62
     3
 10
70.229005018199999
 20
145.8554700798999
 30
0.0
 11
56.547056888199997
 21
190.20261976290001
 31
0.0
  0
LINE
  5
61
  8
0
 62
     3
 10
82.965912710200001
 20
113.0515769992999
 30
0.0
 11
82.842233023099993
 21
113.4524586241
 31
0.0
  0
LINE
  5
62
  8
0
 62
     3
 10
56.547056888199997
 20
190.20261976290001
 30
0.0
 11
76.613746245900003
 21
196.393579157
 31
0.0
  0
LINE
  5
63
  8
0
 62
     3
 10
98.254818887499994
 20
117.7684984425
 30
0.0
 11
98.131139200400014
 21
118.1693800673
 31
0.0
  0
LINE
  5
64
  8
0
 62
     3
 10
90.295694376000014
 20
152.04642947409999
 30
0.0
 11
76.613746245900003
 21
196.393579157
 31
0.0
  0
POLYLINE
  5
65
  8
0
 62
     3
 66
     1
 10
0.0
 20
0.0
 30
0.0
  0
VERTEX
  5
1BD
  8
0
 62
     3
 10
98.131139200400014
 20
118.1693800673
 30
0.0
  0
VERTEX
  5
1BE
  8
0
 62
     3
 10
96.975731918500003
 20
122.2763011829
 30
0.0
  0
VERTEX
  5
1BF
  8
0
 62
     3
 10
95.939825040399995
 20
126.64719110350001
 30
0.0
  0
VERTEX
  5
1C0
  8
0
 62
     3
 10
94.983524638999995
 20
131.25825515339989
 30
0.0
  0
SEQEND
  5
1C1
  8
0
 62
     3
  0
POLYLINE
  5
6B
  8
0
 62
     3
 66
     1
 10
0.0
 20
0.0
 30
0.0
  0
VERTEX
  5
1C2
  8
0
 62
     3
 10
94.983524638999995
 20
131.25825515339989
 30
0.0
  0
VERTEX
  5
1C3
  8
0
 62
     3
 10
93.519683806900005
 20
138.71160159909991
 30
0.0
  0
VERTEX
  5
1C4
  8
0
 62
     3
 10
92.018660499500001
 20
145.66712312589991
 30
0.0
  0
VERTEX
  5
1C5
  8
0
 62
     3
 10
90.295694376000014
 20
152.04642947409999
 30
0.0
  0
SEQEND
  5
1C6
  8
0
 62
     3
  0
LINE
  5
73
  8
0
 62
     3
 10
181.89353036279991
 20
119.77908194530001
 30
0.0
 11
107.2896579455999
 21
99.638956942299998
 31
0.0
  0
LINE
  5
75
  8
0
 62
     3
 10
268.50557469080002
 20
122.713652873
 30
0.0
 11
284.50557469080002
 21
122.713652873
 31
0.0
  0
LINE
  5
77
  8
0
 62
     3
 10
177.72344035180001
 20
135.22609943409989
 30
0.0
 11
103.1195679345999
 21
115.0859744311
 31
0.0
  0
LINE
  5
80
  8
0
 62
     3
 10
268.50557469080002
 20
122.713652873
 30
0.0
 11
268.50557469080002
 21
129.11365287300001
 31
0.0
  0
LINE
  5
81
  8
0
 62
     3
 10
284.50557469080002
 20
122.713652873
 30
0.0
 11
284.50557469080002
 21
129.11365287300001
 31
0.0
  0
ARC
  5
84
  8
0
 62
     3
 10
102.0770454318
 20
118.9477288033
 30
0.0
 40
20.0
 50
197.14600000000041
 51
285.1074845226006
  0
ARC
  5
86
  8
0
 62
     3
 10
102.0770454318
 20
118.9477288033
 30
0.0
 40
4.0
 50
197.14600000000041
 51
285.1074845226006
  0
ARC
  5
87
  8
0
 62
     3
 10
182.9360528656
 20
115.9173275731
 30
0.0
 40
20.0
 50
96.860370364081817
 51
105.1074845226002
  0
ARC
  5
89
  8
0
 62
     3
 10
267.50557469080002
 20
129.11365287300001
 30
0.0
 40
17.0
 50
0.0
 51
96.860370364081803
  0
LINE
  5
8B
  8
0
 62
     3
 10
260.50557469080002
 20
125.913652873
 30
0.0
 11
268.50557469080002
 21
125.913652873
 31
0.0
  0
LINE
  5
94
  8
0
 62
     3
 10
180.54704982487181
 20
135.77413155741201
 30
0.0
 11
265.474922106181
 21
145.99193625966521
 31
0.0
  0
LINE
  5
95
  8
0
 62
     3
 10
182.45825225745429
 20
119.8886883699624
 30
0.0
 11
267.38612453876362
 21
130.10649307221561
 31
0.0
  0
ARC
  5
96
  8
0
 62
     3
 10
267.50557469080002
 20
129.11365287300001
 30
0.0
 40
1.0
 50
0.0
 51
96.860370364081803
  0
ARC
  5
97
  8
0
 62
     3
 10
182.9360528656
 20
115.9173275731
 30
0.0
 40
4.0
 50
96.860370364081817
 51
105.1074845226002
  0
LINE
  5
98
  8
0
 62
     3
 10
284.50557469080002
 20
125.913652873
 30
0.0
 11
292.50557469080002
 21
125.913652873
 31
0.0
  0
TEXT
  5
A6
  8
0
 10
137.1780958228054
 20
171.99064967263121
 30
0.0
 40
4.0
  1
TD-1002-348
1001
ACAD
1000
R13OBJECT
1002
{
1005
AA
1002
}
  0
TEXT
  5
A7
  8
0
 10
294.20412749758032
 20
127.06057340796841
 30
0.0
 40
3.0
  1
HI/LOW TENSION
  0
TEXT
  5
A8
  8
0
 10
298.20412749758032
 20
122.06057340796841
 30
0.0
 40
3.0
  1
CIRCUIT SIDE
1001
ACAD
1000
R13OBJECT
1002
{
1005
A7
1002
}
  0
TEXT
  5
A9
  8
0
 10
104.5114291561388
 20
165.32398300596449
 30
0.0
 40
4.0
  1
THIS SIDE IS THE COPPER SIDE
1001
ACAD
1000
R13OBJECT
1002
{
1005
AA
1002
}
  0
TEXT
  5
AA
  8
0
 10
122.1780958228054
 20
178.65731633929781
 30
0.0
 40
4.0
  1
TL/TR/BL/BR - M-05
  0
LINE
  5
AB
  8
0
 62
     3
 10
47.692942570133852
 20
183.2849135215167
 30
0.0
 11
57.726287248989131
 21
186.3803932185684
 31
0.0
  0
LINE
  5
AC
  8
0
 62
     3
 10
77.792976606699455
 20
192.57135261267149
 30
0.0
 11
87.826321285533865
 21
195.66683230971671
 31
0.0
  0
POLYLINE
  5
10E
  8
TOP_TAPE
 66
     1
 10
0.0
 20
0.0
 30
0.0
 70
   128
 40
0.5
 41
0.5
  0
VERTEX
  5
1CB
  8
TOP_TAPE
 10
277.00557469080002
 20
122.713652873
 30
0.0
  0
VERTEX
  5
1CC
  8
TOP_TAPE
 10
277.00557469080002
 20
129.11365287300001
 30
0.0
 42
0.4497344762093373
  0
VERTEX
  5
1CD
  8
TOP_TAPE
 10
266.37079824645411
 20
138.54563476554819
 30
0.0
  0
VERTEX
  5
1CE
  8
TOP_TAPE
 10
180.5482011554648
 20
128.22018432671879
 30
0.0
  0
VERTEX
  5
1CF
  8
TOP_TAPE
 10
105.0742976272379
 20
107.8451849832209
 30
0.0
 42
-0.4038307507290977
  0
VERTEX
  5
1D0
  8
TOP_TAPE
 10
91.088144116886156
 20
115.55744151603341
 30
0.0
 42
-0.4038307507290977
  0
SEQEND
  5
1D1
  8
TOP_TAPE
  0
POLYLINE
  5
10F
  8
TOP_TAPE
 66
     1
 10
0.0
 20
0.0
 30
0.0
 70
   128
 40
0.5
 41
0.5
  0
VERTEX
  5
1D2
  8
TOP_TAPE
 10
276.00557469080002
 20
122.713652873
 30
0.0
  0
VERTEX
  5
1D3
  8
TOP_TAPE
 10
276.00557469080002
 20
129.11365287300001
 30
0.0
 42
0.4497344762093375
  0
VERTEX
  5
1D4
  8
TOP_TAPE
 10
266.49024839849051
 20
137.55279456633261
 30
0.0
  0
VERTEX
  5
1D5
  8
TOP_TAPE
 10
180.7392292922795
 20
127.2359557864298
 30
0.0
  0
VERTEX
  5
1D6
  8
TOP_TAPE
 10
105.3349282529251
 20
106.8797463901691
 30
0.0
 42
-0.4038307507290978
  0
VERTEX
  5
1D7
  8
TOP_TAPE
 10
90.132587480803664
 20
115.26263392583481
 30
0.0
 42
-0.4038307507290978
  0
SEQEND
  5
1D8
  8
TOP_TAPE
  0
POLYLINE
  5
110
  8
TOP_TAPE
 66
     1
 10
0.0
 20
0.0
 30
0.0
 70
   128
 40
0.5
 41
0.5
  0
VERTEX
  5
1D9
  8
TOP_TAPE
 10
275.00557469080002
 20
122.713652873
 30
0.0
  0
VERTEX
  5
1DA
  8
TOP_TAPE
 10
275.00557469080002
 20
129.11365287300001
 30
0.0
 42
0.4497344762093375
  0
VERTEX
  5
1DB
  8
TOP_TAPE
 10
266.60969855052679
 20
136.559954367117
 30
0.0
  0
VERTEX
  5
1DC
  8
TOP_TAPE
 10
180.9302574290943
 20
126.2517272461407
 30
0.0
  0
VERTEX
  5
1DD
  8
TOP_TAPE
 10
105.59555887861229
 20
105.9143077971173
 30
0.0
 42
-0.4038307507290967
  0
VERTEX
  5
1DE
  8
TOP_TAPE
 10
89.177030844721145
 20
114.9678263356363
 30
0.0
 42
-0.4038307507290967
  0
SEQEND
  5
1DF
  8
TOP_TAPE
  0
POLYLINE
  5
111
  8
TOP_TAPE
 66
     1
 10
0.0
 20
0.0
 30
0.0
 70
   128
 40
1.5
 41
1.5
  0
VERTEX
  5
1E0
  8
TOP_TAPE
 10
273.50557469080002
 20
122.713652873
 30
0.0
  0
VERTEX
  5
1E1
  8
TOP_TAPE
 10
273.50557469080002
 20
129.11365287300001
 30
0.0
 42
0.4497344762093395
  0
VERTEX
  5
1E2
  8
TOP_TAPE
 10
266.78887377858149
 20
135.07069406829359
 30
0.0
  0
VERTEX
  5
1E3
  8
TOP_TAPE
 10
181.2167996343164
 20
124.7753844357072
 30
0.0
  0
VERTEX
  5
1E4
  8
TOP_TAPE
 10
105.9865048171431
 20
104.4661499075396
 30
0.0
 42
-0.4038307507290979
  0
VERTEX
  5
1E5
  8
TOP_TAPE
 10
87.743695890597365
 20
114.52561495033839
 30
0.0
 42
-0.4038307507290979
  0
SEQEND
  5
1E6
  8
TOP_TAPE
  0
POLYLINE
  5
112
  8
TOP_TAPE
 66
     1
 10
0.0
 20
0.0
 30
0.0
 70
   128
 40
1.5
 41
1.5
  0
VERTEX
  5
1E7
  8
TOP_TAPE
 10
278.50557469080002
 20
122.713652873
 30
0.0
  0
VERTEX
  5
1E8
  8
TOP_TAPE
 10
278.50557469080002
 20
129.11365287300001
 30
0.0
 42
0.4497344762093373
  0
VERTEX
  5
1E9
  8
TOP_TAPE
 10
266.19162301839953
 20
140.0348950643716
 30
0.0
  0
VERTEX
  5
1EA
  8
TOP_TAPE
 10
180.26165895024249
 20
129.6965271371524
 30
0.0
  0
VERTEX
  5
1EB
  8
TOP_TAPE
 10
104.68335168870711
 20
109.2933428727987
 30
0.0
 42
-0.4038307507290978
  0
VERTEX
  5
1EC
  8
TOP_TAPE
 10
92.521479071009907
 20
115.9996529013312
 30
0.0
 42
-0.4038307507290978
  0
SEQEND
  5
1ED
  8
TOP_TAPE
  0
POLYLINE
  5
113
  8
TOP_TAPE
 66
     1
 10
0.0
 20
0.0
 30
0.0
 70
   128
 40
0.5
 41
0.5
  0
VERTEX
  5
1EE
  8
TOP_TAPE
 10
280.00557469080002
 20
122.713652873
 30
0.0
  0
VERTEX
  5
1EF
  8
TOP_TAPE
 10
280.00557469080002
 20
129.11365287300001
 30
0.0
 42
0.4497344762093364
  0
VERTEX
  5
1F0
  8
TOP_TAPE
 10
266.01244779034488
 20
141.52415536319501
 30
0.0
  0
VERTEX
  5
1F1
  8
TOP_TAPE
 10
179.9751167450203
 20
131.17286994758589
 30
0.0
  0
VERTEX
  5
1F2
  8
TOP_TAPE
 10
104.2924057501762
 20
110.7415007623764
 30
0.0
 42
-0.4038307507290986
  0
VERTEX
  5
1F3
  8
TOP_TAPE
 10
93.954814025133658
 20
116.4418642866291
 30
0.0
 42
-0.4038307507290986
  0
SEQEND
  5
1F4
  8
TOP_TAPE
  0
POLYLINE
  5
114
  8
TOP_TAPE
 66
     1
 10
0.0
 20
0.0
 30
0.0
 70
   128
 40
0.5
 41
0.5
  0
VERTEX
  5
1F5
  8
TOP_TAPE
 10
272.00557469080002
 20
122.713652873
 30
0.0
  0
VERTEX
  5
1F6
  8
TOP_TAPE
 10
272.00557469080002
 20
129.11365287300001
 30
0.0
 42
0.449734476209338
  0
VERTEX
  5
1F7
  8
TOP_TAPE
 10
266.96804900663608
 20
133.58143376947021
 30
0.0
  0
VERTEX
  5
1F8
  8
TOP_TAPE
 10
181.5033418395389
 20
123.2990416252737
 30
0.0
  0
VERTEX
  5
1F9
  8
TOP_TAPE
 10
106.377450755674
 20
103.0179920179618
 30
0.0
 42
-0.4038307507290979
  0
VERTEX
  5
1FA
  8
TOP_TAPE
 10
86.310360936473629
 20
114.0834035650406
 30
0.0
 42
-0.4038307507290979
  0
SEQEND
  5
1FB
  8
TOP_TAPE
  0
POLYLINE
  5
115
  8
TOP_TAPE
 66
     1
 10
0.0
 20
0.0
 30
0.0
 70
   128
 40
0.5
 41
0.5
  0
VERTEX
  5
1FC
  8
TOP_TAPE
 10
271.00557469080002
 20
122.713652873
 30
0.0
  0
VERTEX
  5
1FD
  8
TOP_TAPE
 10
271.00557469080002
 20
129.11365287300001
 30
0.0
 42
0.4497344762093331
  0
VERTEX
  5
1FE
  8
TOP_TAPE
 10
267.08749915867259
 20
132.5885935702546
 30
0.0
  0
VERTEX
  5
1FF
  8
TOP_TAPE
 10
181.6943699763537
 20
122.31481308498471
 30
0.0
  0
VERTEX
  5
200
  8
TOP_TAPE
 10
106.6380813813612
 20
102.05255342491
 30
0.0
 42
-0.4038307507290979
  0
VERTEX
  5
201
  8
TOP_TAPE
 10
85.354804300391123
 20
113.788595974842
 30
0.0
 42
-0.4038307507290979
  0
SEQEND
  5
202
  8
TOP_TAPE
  0
POLYLINE
  5
116
  8
TOP_TAPE
 66
     1
 10
0.0
 20
0.0
 30
0.0
 70
   128
 40
0.5
 41
0.5
  0
VERTEX
  5
203
  8
TOP_TAPE
 10
270.00557469080002
 20
122.713652873
 30
0.0
  0
VERTEX
  5
204
  8
TOP_TAPE
 10
270.00557469080002
 20
129.11365287300001
 30
0.0
 42
0.449734476209332
  0
VERTEX
  5
205
  8
TOP_TAPE
 10
267.20694931070892
 20
131.595753371039
 30
0.0
  0
VERTEX
  5
206
  8
TOP_TAPE
 10
181.88539811316849
 20
121.3305845446957
 30
0.0
  0
VERTEX
  5
207
  8
TOP_TAPE
 10
106.8987120070484
 20
101.0871148318582
 30
0.0
 42
-0.4038307507290981
  0
VERTEX
  5
208
  8
TOP_TAPE
 10
84.399247664308604
 20
113.49378838464339
 30
0.0
 42
-0.4038307507290981
  0
SEQEND
  5
209
  8
TOP_TAPE
  0
POLYLINE
  5
121
  8
TOP_TAPE
 66
     1
 10
0.0
 20
0.0
 30
0.0
 70
   128
 40
0.5
 41
0.5
  0
VERTEX
  5
20A
  8
TOP_TAPE
 10
281.00557469080002
 20
122.713652873
 30
0.0
  0
VERTEX
  5
20B
  8
TOP_TAPE
 10
281.00557469080002
 20
131.11365287300001
 30
0.0
 42
0.2360679774997894
  0
VERTEX
  5
20C
  8
TOP_TAPE
 10
276.20557469080001
 20
140.713652873
 30
0.0
 42
0.1931591914062822
  0
VERTEX
  5
20D
  8
TOP_TAPE
 10
265.77354748627198
 20
143.50983576162619
 30
0.0
  0
VERTEX
  5
20E
  8
TOP_TAPE
 10
179.5930604713906
 20
133.14132702816389
 30
0.0
  0
VERTEX
  5
20F
  8
TOP_TAPE
 10
103.7711444988018
 20
112.6723779484801
 30
0.0
 42
-0.4038307507290986
  0
VERTEX
  5
210
  8
TOP_TAPE
 10
95.865927297298626
 20
117.0314794670262
 30
0.0
  0
SEQEND
  5
211
  8
TOP_TAPE
  0
POLYLINE
  5
132
  8
TOP_TAPE
 66
     1
 10
0.0
 20
0.0
 30
0.0
 70
   128
 40
0.5
 41
0.5
  0
VERTEX
  5
212
  8
TOP_TAPE
 10
67.058179885091235
 20
193.4455032550492
 30
0.0
  0
VERTEX
  5
213
  8
TOP_TAPE
 10
80.740128015141252
 20
149.0983535720992
 30
0.0
  0
SEQEND
  5
214
  8
TOP_TAPE
  0
POLYLINE
  5
133
  8
TOP_TAPE
 66
     1
 10
0.0
 20
0.0
 30
0.0
 70
   128
 40
0.5
 41
0.5
  0
VERTEX
  5
215
  8
TOP_TAPE
 10
66.102623249008758
 20
193.1506956648507
 30
0.0
  0
VERTEX
  5
216
  8
TOP_TAPE
 10
79.784571379058761
 20
148.8035459819007
 30
0.0
  0
SEQEND
  5
217
  8
TOP_TAPE
  0
POLYLINE
  5
134
  8
TOP_TAPE
 66
     1
 10
0.0
 20
0.0
 30
0.0
 70
   128
 40
0.5
 41
0.5
  0
VERTEX
  5
218
  8
TOP_TAPE
 10
65.147066612926253
 20
192.85588807465211
 30
0.0
  0
VERTEX
  5
219
  8
TOP_TAPE
 10
78.829014742976256
 20
148.50873839170211
 30
0.0
  0
SEQEND
  5
21A
  8
TOP_TAPE
  0
POLYLINE
  5
135
  8
TOP_TAPE
 66
     1
 10
0.0
 20
0.0
 30
0.0
 70
   128
 40
4.5
 41
4.5
  0
VERTEX
  5
21B
  8
TOP_TAPE
 10
62.280396704678729
 20
191.97146530405641
 30
0.0
  0
VERTEX
  5
21C
  8
TOP_TAPE
 10
76.052817804129987
 20
147.33106656927831
 30
0.0
  0
SEQEND
  5
21D
  8
TOP_TAPE
  0
POLYLINE
  5
136
  8
TOP_TAPE
 66
     1
 10
0.0
 20
0.0
 30
0.0
 70
   128
 40
4.5
 41
4.5
  0
VERTEX
  5
21E
  8
TOP_TAPE
 10
69.924849793338765
 20
194.32992602564499
 30
0.0
  0
VERTEX
  5
21F
  8
TOP_TAPE
 10
83.684760204410949
 20
149.7300780490564
 30
0.0
  0
SEQEND
  5
220
  8
TOP_TAPE
  0
POLYLINE
  5
137
  8
TOP_TAPE
 66
     1
 10
0.0
 20
0.0
 30
0.0
 70
   128
 40
0.5
 41
0.5
  0
VERTEX
  5
221
  8
TOP_TAPE
 10
72.791519701586282
 20
195.2143487962407
 30
0.0
  0
VERTEX
  5
222
  8
TOP_TAPE
 10
86.473467831636285
 20
150.8671991132907
 30
0.0
  0
SEQEND
  5
223
  8
TOP_TAPE
  0
POLYLINE
  5
138
  8
TOP_TAPE
 66
     1
 10
0.0
 20
0.0
 30
0.0
 70
   128
 40
0.5
 41
0.5
  0
VERTEX
  5
224
  8
TOP_TAPE
 10
74.702632973751292
 20
195.80396397663779
 30
0.0
  0
VERTEX
  5
225
  8
TOP_TAPE
 10
88.384581103801295
 20
151.45681429368781
 30
0.0
  0
SEQEND
  5
226
  8
TOP_TAPE
  0
POLYLINE
  5
139
  8
TOP_TAPE
 66
     1
 10
0.0
 20
0.0
 30
0.0
 70
   128
 40
0.5
 41
0.5
  0
VERTEX
  5
227
  8
TOP_TAPE
 10
59.413726796431227
 20
191.0870425334607
 30
0.0
  0
VERTEX
  5
228
  8
TOP_TAPE
 10
73.095674926481223
 20
146.73989285051061
 30
0.0
  0
SEQEND
  5
229
  8
TOP_TAPE
  0
POLYLINE
  5
13A
  8
TOP_TAPE
 66
     1
 10
0.0
 20
0.0
 30
0.0
 70
   128
 40
0.5
 41
0.5
  0
VERTEX
  5
22A
  8
TOP_TAPE
 10
58.458170160348722
 20
190.79223494326209
 30
0.0
  0
VERTEX
  5
22B
  8
TOP_TAPE
 10
72.140118290398718
 20
146.44508526031211
 30
0.0
  0
SEQEND
  5
22C
  8
TOP_TAPE
  0
POLYLINE
  5
13B
  8
TOP_TAPE
 66
     1
 10
0.0
 20
0.0
 30
0.0
 70
   128
 40
0.5
 41
0.5
  0
VERTEX
  5
22D
  8
TOP_TAPE
 10
57.502613524266224
 20
190.4974273530635
 30
0.0
  0
VERTEX
  5
22E
  8
TOP_TAPE
 10
71.184561654316212
 20
146.1502776701135
 30
0.0
  0
SEQEND
  5
22F
  8
TOP_TAPE
  0
POLYLINE
  5
13E
  8
TOP_TAPE
 66
     1
 10
0.0
 20
0.0
 30
0.0
 70
   128
 40
0.5
 41
0.5
  0
VERTEX
  5
230
  8
TOP_TAPE
 10
71.184561654316212
 20
146.1502776701135
 30
0.0
  0
VERTEX
  5
231
  8
TOP_TAPE
 10
84.399247664308604
 20
113.49378838464339
 30
0.0
  0
SEQEND
  5
232
  8
TOP_TAPE
  0
POLYLINE
  5
13F
  8
TOP_TAPE
 66
     1
 10
0.0
 20
0.0
 30
0.0
 70
   128
 40
0.5
 41
0.5
  0
VERTEX
  5
233
  8
TOP_TAPE
 10
72.140118290398718
 20
146.44508526031211
 30
0.0
  0
VERTEX
  5
234
  8
TOP_TAPE
 10
85.464728671068315
 20
113.516947898564
 30
0.0
  0
SEQEND
  5
235
  8
TOP_TAPE
  0
POLYLINE
  5
140
  8
TOP_TAPE
 66
     1
 10
0.0
 20
0.0
 30
0.0
 70
   128
 40
0.5
 41
0.5
  0
VERTEX
  5
236
  8
TOP_TAPE
 10
73.095674926481223
 20
146.73989285051061
 30
0.0
  0
VERTEX
  5
237
  8
TOP_TAPE
 10
86.413448576725145
 20
113.82865060180011
 30
0.0
  0
SEQEND
  5
238
  8
TOP_TAPE
  0
POLYLINE
  5
141
  8
TOP_TAPE
 66
     1
 10
0.0
 20
0.0
 30
0.0
 70
   128
 40
0.5
 41
0.5
  0
VERTEX
  5
239
  8
TOP_TAPE
 10
78.829014742976256
 20
148.50873839170211
 30
0.0
  0
VERTEX
  5
23A
  8
TOP_TAPE
 10
89.177030844721145
 20
114.9678263356363
 30
0.0
  0
SEQEND
  5
23B
  8
TOP_TAPE
  0
POLYLINE
  5
142
  8
TOP_TAPE
 66
     1
 10
0.0
 20
0.0
 30
0.0
 70
   128
 40
0.5
 41
0.5
  0
VERTEX
  5
23C
  8
TOP_TAPE
 10
79.784571379058761
 20
148.8035459819007
 30
0.0
  0
VERTEX
  5
23D
  8
TOP_TAPE
 10
90.132587480803664
 20
115.26263392583481
 30
0.0
  0
SEQEND
  5
23E
  8
TOP_TAPE
  0
POLYLINE
  5
143
  8
TOP_TAPE
 66
     1
 10
0.0
 20
0.0
 30
0.0
 70
   128
 40
0.5
 41
0.5
  0
VERTEX
  5
23F
  8
TOP_TAPE
 10
80.740128015141252
 20
149.0983535720992
 30
0.0
  0
VERTEX
  5
240
  8
TOP_TAPE
 10
91.088144116886156
 20
115.55744151603341
 30
0.0
  0
SEQEND
  5
241
  8
TOP_TAPE
  0
POLYLINE
  5
144
  8
TOP_TAPE
 66
     1
 10
0.0
 20
0.0
 30
0.0
 70
   128
 40
0.5
 41
0.5
  0
VERTEX
  5
242
  8
TOP_TAPE
 10
86.473467831636285
 20
150.8671991132907
 30
0.0
  0
VERTEX
  5
243
  8
TOP_TAPE
 10
93.954814025133658
 20
116.4418642866291
 30
0.0
  0
SEQEND
  5
244
  8
TOP_TAPE
  0
POLYLINE
  5
145
  8
TOP_TAPE
 66
     1
 10
0.0
 20
0.0
 30
0.0
 70
   128
 40
0.5
 41
0.5
  0
VERTEX
  5
245
  8
TOP_TAPE
 10
88.384581103801295
 20
151.45681429368781
 30
0.0
  0
VERTEX
  5
246
  8
TOP_TAPE
 10
95.865927297298626
 20
117.0314794670262
 30
0.0
  0
SEQEND
  5
247
  8
TOP_TAPE
  0
POLYLINE
  5
146
  8
TOP_TAPE
 66
     1
 10
0.0
 20
0.0
 30
0.0
 70
   128
 40
1.4789087742103071
 41
4.5
  0
VERTEX
  5
248
  8
TOP_TAPE
 10
87.826523602339705
 20
114.29291756060751
 30
0.0
  0
VERTEX
  5
249
  8
TOP_TAPE
 10
75.962344834728739
 20
147.6243156211064
 30
0.0
 40
4.5
  0
SEQEND
  5
24A
  8
TOP_TAPE
  0
POLYLINE
  5
147
  8
TOP_TAPE
 66
     1
 10
0.0
 20
0.0
 30
0.0
 70
   128
 40
4.5
 41
1.486654449677778
  0
VERTEX
  5
24B
  8
TOP_TAPE
 10
83.606797923388754
 20
149.98277634269499
 30
0.0
  0
VERTEX
  5
24C
  8
TOP_TAPE
 10
92.561136179630623
 20
115.8484784066669
 30
0.0
 40
1.5
 41
1.5
  0
SEQEND
  5
24D
  8
TOP_TAPE
  0
POLYLINE
  5
14D
  8
BOTTOM_TAPE
 66
     1
 10
0.0
 20
0.0
 30
0.0
 70
   128
 40
4.5
 41
1.486654449677778
  0
VERTEX
  5
24E
  8
BOTTOM_TAPE
 10
83.606797923388754
 20
149.98277634269499
 30
0.0
  0
VERTEX
  5
24F
  8
BOTTOM_TAPE
 10
92.561136179630637
 20
115.8484784066669
 30
0.0
 40
1.5
 41
1.5
  0
SEQEND
  5
250
  8
BOTTOM_TAPE
  0
POLYLINE
  5
14E
  8
BOTTOM_TAPE
 66
     1
 10
0.0
 20
0.0
 30
0.0
 70
   128
 40
4.5
 41
4.5
  0
VERTEX
  5
251
  8
BOTTOM_TAPE
 10
62.280396704678729
 20
191.97146530405641
 30
0.0
  0
VERTEX
  5
252
  8
BOTTOM_TAPE
 10
76.052817804129973
 20
147.33106656927831
 30
0.0
  0
SEQEND
  5
253
  8
BOTTOM_TAPE
  0
POLYLINE
  5
14F
  8
BOTTOM_TAPE
 66
     1
 10
0.0
 20
0.0
 30
0.0
 70
   128
 40
0.5
 41
0.5
  0
VERTEX
  5
254
  8
BOTTOM_TAPE
 10
88.384581103801295
 20
151.45681429368781
 30
0.0
  0
VERTEX
  5
255
  8
BOTTOM_TAPE
 10
95.865927297298626
 20
117.0314794670262
 30
0.0
  0
SEQEND
  5
256
  8
BOTTOM_TAPE
  0
POLYLINE
  5
150
  8
BOTTOM_TAPE
 66
     1
 10
0.0
 20
0.0
 30
0.0
 70
   128
 40
0.5
 41
0.5
  0
VERTEX
  5
257
  8
BOTTOM_TAPE
 10
86.473467831636299
 20
150.8671991132907
 30
0.0
  0
VERTEX
  5
258
  8
BOTTOM_TAPE
 10
93.954814025133658
 20
116.4418642866291
 30
0.0
  0
SEQEND
  5
259
  8
BOTTOM_TAPE
  0
POLYLINE
  5
151
  8
BOTTOM_TAPE
 66
     1
 10
0.0
 20
0.0
 30
0.0
 70
   128
 40
0.5
 41
0.5
  0
VERTEX
  5
25A
  8
BOTTOM_TAPE
 10
80.740128015141238
 20
149.0983535720992
 30
0.0
  0
VERTEX
  5
25B
  8
BOTTOM_TAPE
 10
91.088144116886156
 20
115.55744151603341
 30
0.0
  0
SEQEND
  5
25C
  8
BOTTOM_TAPE
  0
POLYLINE
  5
152
  8
BOTTOM_TAPE
 66
     1
 10
0.0
 20
0.0
 30
0.0
 70
   128
 40
0.5
 41
0.5
  0
VERTEX
  5
25D
  8
BOTTOM_TAPE
 10
79.784571379058775
 20
148.8035459819007
 30
0.0
  0
VERTEX
  5
25E
  8
BOTTOM_TAPE
 10
90.132587480803636
 20
115.26263392583481
 30
0.0
  0
SEQEND
  5
25F
  8
BOTTOM_TAPE
  0
POLYLINE
  5
153
  8
BOTTOM_TAPE
 66
     1
 10
0.0
 20
0.0
 30
0.0
 70
   128
 40
0.5
 41
0.5
  0
VERTEX
  5
260
  8
BOTTOM_TAPE
 10
78.829014742976256
 20
148.50873839170211
 30
0.0
  0
VERTEX
  5
261
  8
BOTTOM_TAPE
 10
89.177030844721145
 20
114.9678263356363
 30
0.0
  0
SEQEND
  5
262
  8
BOTTOM_TAPE
  0
POLYLINE
  5
154
  8
BOTTOM_TAPE
 66
     1
 10
0.0
 20
0.0
 30
0.0
 70
   128
 40
0.5
 41
0.5
  0
VERTEX
  5
263
  8
BOTTOM_TAPE
 10
57.502613524266231
 20
190.4974273530635
 30
0.0
  0
VERTEX
  5
264
  8
BOTTOM_TAPE
 10
71.184561654316212
 20
146.1502776701135
 30
0.0
  0
SEQEND
  5
265
  8
BOTTOM_TAPE
  0
POLYLINE
  5
155
  8
BOTTOM_TAPE
 66
     1
 10
0.0
 20
0.0
 30
0.0
 70
   128
 40
0.5
 41
0.5
  0
VERTEX
  5
266
  8
BOTTOM_TAPE
 10
58.458170160348708
 20
190.79223494326209
 30
0.0
  0
VERTEX
  5
267
  8
BOTTOM_TAPE
 10
72.140118290398732
 20
146.44508526031211
 30
0.0
  0
SEQEND
  5
268
  8
BOTTOM_TAPE
  0
POLYLINE
  5
156
  8
BOTTOM_TAPE
 66
     1
 10
0.0
 20
0.0
 30
0.0
 70
   128
 40
0.5
 41
0.5
  0
VERTEX
  5
269
  8
BOTTOM_TAPE
 10
59.413726796431227
 20
191.0870425334607
 30
0.0
  0
VERTEX
  5
26A
  8
BOTTOM_TAPE
 10
73.095674926481223
 20
146.73989285051061
 30
0.0
  0
SEQEND
  5
26B
  8
BOTTOM_TAPE
  0
POLYLINE
  5
157
  8
BOTTOM_TAPE
 66
     1
 10
0.0
 20
0.0
 30
0.0
 70
   128
 40
0.5
 41
0.5
  0
VERTEX
  5
26C
  8
BOTTOM_TAPE
 10
65.147066612926267
 20
192.85588807465211
 30
0.0
  0
VERTEX
  5
26D
  8
BOTTOM_TAPE
 10
78.829014742976256
 20
148.50873839170211
 30
0.0
  0
SEQEND
  5
26E
  8
BOTTOM_TAPE
  0
POLYLINE
  5
15A
  8
BOTTOM_TAPE
 66
     1
 10
0.0
 20
0.0
 30
0.0
 70
   128
 40
1.4789087742103071
 41
4.5
  0
VERTEX
  5
26F
  8
BOTTOM_TAPE
 10
87.826523602339705
 20
114.29291756060751
 30
0.0
  0
VERTEX
  5
270
  8
BOTTOM_TAPE
 10
75.962344834728754
 20
147.6243156211064
 30
0.0
 40
4.5
  0
SEQEND
  5
271
  8
BOTTOM_TAPE
  0
POLYLINE
  5
15B
  8
BOTTOM_TAPE
 66
     1
 10
0.0
 20
0.0
 30
0.0
 70
   128
 40
0.5
 41
0.5
  0
VERTEX
  5
272
  8
BOTTOM_TAPE
 10
73.095674926481223
 20
146.73989285051061
 30
0.0
  0
VERTEX
  5
273
  8
BOTTOM_TAPE
 10
86.413448576725159
 20
113.82865060180011
 30
0.0
  0
SEQEND
  5
274
  8
BOTTOM_TAPE
  0
POLYLINE
  5
15C
  8
BOTTOM_TAPE
 66
     1
 10
0.0
 20
0.0
 30
0.0
 70
   128
 40
0.5
 41
0.5
  0
VERTEX
  5
275
  8
BOTTOM_TAPE
 10
72.140118290398732
 20
146.44508526031211
 30
0.0
  0
VERTEX
  5
276
  8
BOTTOM_TAPE
 10
85.464728671068315
 20
113.516947898564
 30
0.0
  0
SEQEND
  5
277
  8
BOTTOM_TAPE
  0
POLYLINE
  5
15D
  8
BOTTOM_TAPE
 66
     1
 10
0.0
 20
0.0
 30
0.0
 70
   128
 40
0.5
 41
0.5
  0
VERTEX
  5
278
  8
BOTTOM_TAPE
 10
71.184561654316212
 20
146.1502776701135
 30
0.0
  0
VERTEX
  5
279
  8
BOTTOM_TAPE
 10
84.399247664308632
 20
113.49378838464339
 30
0.0
  0
SEQEND
  5
27A
  8
BOTTOM_TAPE
  0
POLYLINE
  5
167
  8
BOTTOM_TAPE
 66
     1
 10
0.0
 20
0.0
 30
0.0
 70
   128
 40
4.5
 41
4.5
  0
VERTEX
  5
27B
  8
BOTTOM_TAPE
 10
69.924849793338751
 20
194.32992602564499
 30
0.0
  0
VERTEX
  5
27C
  8
BOTTOM_TAPE
 10
83.684760204410964
 20
149.7300780490564
 30
0.0
  0
SEQEND
  5
27D
  8
BOTTOM_TAPE
  0
POLYLINE
  5
168
  8
BOTTOM_TAPE
 66
     1
 10
0.0
 20
0.0
 30
0.0
 70
   128
 40
0.5
 41
0.5
  0
VERTEX
  5
27E
  8
BOTTOM_TAPE
 10
74.702632973751292
 20
195.80396397663779
 30
0.0
  0
VERTEX
  5
27F
  8
BOTTOM_TAPE
 10
88.384581103801295
 20
151.45681429368781
 30
0.0
  0
SEQEND
  5
280
  8
BOTTOM_TAPE
  0
POLYLINE
  5
169
  8
BOTTOM_TAPE
 66
     1
 10
0.0
 20
0.0
 30
0.0
 70
   128
 40
0.5
 41
0.5
  0
VERTEX
  5
281
  8
BOTTOM_TAPE
 10
72.791519701586282
 20
195.2143487962407
 30
0.0
  0
VERTEX
  5
282
  8
BOTTOM_TAPE
 10
86.473467831636299
 20
150.8671991132907
 30
0.0
  0
SEQEND
  5
283
  8
BOTTOM_TAPE
  0
POLYLINE
  5
16A
  8
BOTTOM_TAPE
 66
     1
 10
0.0
 20
0.0
 30
0.0
 70
   128
 40
0.5
 41
0.5
  0
VERTEX
  5
284
  8
BOTTOM_TAPE
 10
66.102623249008758
 20
193.1506956648507
 30
0.0
  0
VERTEX
  5
285
  8
BOTTOM_TAPE
 10
79.784571379058775
 20
148.8035459819007
 30
0.0
  0
SEQEND
  5
286
  8
BOTTOM_TAPE
  0
POLYLINE
  5
16B
  8
BOTTOM_TAPE
 66
     1
 10
0.0
 20
0.0
 30
0.0
 70
   128
 40
0.5
 41
0.5
  0
VERTEX
  5
287
  8
BOTTOM_TAPE
 10
67.058179885091235
 20
193.4455032550492
 30
0.0
  0
VERTEX
  5
288
  8
BOTTOM_TAPE
 10
80.740128015141238
 20
149.0983535720992
 30
0.0
  0
SEQEND
  5
289
  8
BOTTOM_TAPE
  0
POLYLINE
  5
178
  8
BOTTOM_TAPE
 66
     1
 10
0.0
 20
0.0
 30
0.0
 70
   128
 40
0.5
 41
0.5
  0
VERTEX
  5
28A
  8
BOTTOM_TAPE
 10
280.00557469080002
 20
122.713652873
 30
0.0
  0
VERTEX
  5
28B
  8
BOTTOM_TAPE
 10
280.00557469080002
 20
129.11365287300001
 30
0.0
 42
0.4497344762093364
  0
VERTEX
  5
28C
  8
BOTTOM_TAPE
 10
266.01244779034488
 20
141.52415536319501
 30
0.0
  0
VERTEX
  5
28D
  8
BOTTOM_TAPE
 10
179.9751167450203
 20
131.17286994758589
 30
0.0
  0
VERTEX
  5
28E
  8
BOTTOM_TAPE
 10
104.2924057501762
 20
110.7415007623764
 30
0.0
 42
-0.4038307507290986
  0
VERTEX
  5
28F
  8
BOTTOM_TAPE
 10
93.954814025133658
 20
116.4418642866291
 30
0.0
 42
-0.4038307507290986
  0
SEQEND
  5
290
  8
BOTTOM_TAPE
  0
POLYLINE
  5
179
  8
BOTTOM_TAPE
 66
     1
 10
0.0
 20
0.0
 30
0.0
 70
   128
 40
1.5
 41
1.5
  0
VERTEX
  5
291
  8
BOTTOM_TAPE
 10
278.50557469080002
 20
122.713652873
 30
0.0
  0
VERTEX
  5
292
  8
BOTTOM_TAPE
 10
278.50557469080002
 20
129.11365287300001
 30
0.0
 42
0.4497344762093373
  0
VERTEX
  5
293
  8
BOTTOM_TAPE
 10
266.19162301839953
 20
140.0348950643716
 30
0.0
  0
VERTEX
  5
294
  8
BOTTOM_TAPE
 10
180.26165895024249
 20
129.6965271371524
 30
0.0
  0
VERTEX
  5
295
  8
BOTTOM_TAPE
 10
104.68335168870711
 20
109.2933428727987
 30
0.0
 42
-0.4038307507290978
  0
VERTEX
  5
296
  8
BOTTOM_TAPE
 10
92.521479071009907
 20
115.9996529013312
 30
0.0
 42
-0.4038307507290978
  0
SEQEND
  5
297
  8
BOTTOM_TAPE
  0
POLYLINE
  5
17A
  8
BOTTOM_TAPE
 66
     1
 10
0.0
 20
0.0
 30
0.0
 70
   128
 40
0.5
 41
0.5
  0
VERTEX
  5
298
  8
BOTTOM_TAPE
 10
277.00557469080002
 20
122.713652873
 30
0.0
  0
VERTEX
  5
299
  8
BOTTOM_TAPE
 10
277.00557469080002
 20
129.11365287300001
 30
0.0
 42
0.4497344762093373
  0
VERTEX
  5
29A
  8
BOTTOM_TAPE
 10
266.37079824645411
 20
138.54563476554819
 30
0.0
  0
VERTEX
  5
29B
  8
BOTTOM_TAPE
 10
180.5482011554648
 20
128.22018432671879
 30
0.0
  0
VERTEX
  5
29C
  8
BOTTOM_TAPE
 10
105.0742976272379
 20
107.8451849832209
 30
0.0
 42
-0.4038307507290977
  0
VERTEX
  5
29D
  8
BOTTOM_TAPE
 10
91.088144116886156
 20
115.55744151603341
 30
0.0
 42
-0.4038307507290977
  0
SEQEND
  5
29E
  8
BOTTOM_TAPE
  0
POLYLINE
  5
17B
  8
BOTTOM_TAPE
 66
     1
 10
0.0
 20
0.0
 30
0.0
 70
   128
 40
0.5
 41
0.5
  0
VERTEX
  5
29F
  8
BOTTOM_TAPE
 10
276.00557469080002
 20
122.713652873
 30
0.0
  0
VERTEX
  5
2A0
  8
BOTTOM_TAPE
 10
276.00557469080002
 20
129.11365287300001
 30
0.0
 42
0.4497344762093375
  0
VERTEX
  5
2A1
  8
BOTTOM_TAPE
 10
266.49024839849051
 20
137.55279456633261
 30
0.0
  0
VERTEX
  5
2A2
  8
BOTTOM_TAPE
 10
180.7392292922795
 20
127.2359557864298
 30
0.0
  0
VERTEX
  5
2A3
  8
BOTTOM_TAPE
 10
105.3349282529251
 20
106.8797463901691
 30
0.0
 42
-0.4038307507290978
  0
VERTEX
  5
2A4
  8
BOTTOM_TAPE
 10
90.132587480803636
 20
115.26263392583481
 30
0.0
 42
-0.4038307507290978
  0
SEQEND
  5
2A5
  8
BOTTOM_TAPE
  0
POLYLINE
  5
17C
  8
BOTTOM_TAPE
 66
     1
 10
0.0
 20
0.0
 30
0.0
 70
   128
 40
0.5
 41
0.5
  0
VERTEX
  5
2A6
  8
BOTTOM_TAPE
 10
275.00557469080002
 20
122.713652873
 30
0.0
  0
VERTEX
  5
2A7
  8
BOTTOM_TAPE
 10
275.00557469080002
 20
129.11365287300001
 30
0.0
 42
0.4497344762093375
  0
VERTEX
  5
2A8
  8
BOTTOM_TAPE
 10
266.60969855052679
 20
136.559954367117
 30
0.0
  0
VERTEX
  5
2A9
  8
BOTTOM_TAPE
 10
180.9302574290943
 20
126.2517272461407
 30
0.0
  0
VERTEX
  5
2AA
  8
BOTTOM_TAPE
 10
105.59555887861229
 20
105.9143077971173
 30
0.0
 42
-0.4038307507290967
  0
VERTEX
  5
2AB
  8
BOTTOM_TAPE
 10
89.177030844721145
 20
114.9678263356363
 30
0.0
 42
-0.4038307507290967
  0
SEQEND
  5
2AC
  8
BOTTOM_TAPE
  0
POLYLINE
  5
17D
  8
BOTTOM_TAPE
 66
     1
 10
0.0
 20
0.0
 30
0.0
 70
   128
 40
1.5
 41
1.5
  0
VERTEX
  5
2AD
  8
BOTTOM_TAPE
 10
273.50557469080002
 20
122.713652873
 30
0.0
  0
VERTEX
  5
2AE
  8
BOTTOM_TAPE
 10
273.50557469080002
 20
129.11365287300001
 30
0.0
 42
0.4497344762093395
  0
VERTEX
  5
2AF
  8
BOTTOM_TAPE
 10
266.78887377858149
 20
135.07069406829359
 30
0.0
  0
VERTEX
  5
2B0
  8
BOTTOM_TAPE
 10
181.2167996343164
 20
124.7753844357072
 30
0.0
  0
VERTEX
  5
2B1
  8
BOTTOM_TAPE
 10
105.9865048171431
 20
104.4661499075396
 30
0.0
 42
-0.4038307507290979
  0
VERTEX
  5
2B2
  8
BOTTOM_TAPE
 10
87.743695890597394
 20
114.52561495033839
 30
0.0
 42
-0.4038307507290979
  0
SEQEND
  5
2B3
  8
BOTTOM_TAPE
  0
POLYLINE
  5
17E
  8
BOTTOM_TAPE
 66
     1
 10
0.0
 20
0.0
 30
0.0
 70
   128
 40
0.5
 41
0.5
  0
VERTEX
  5
2B4
  8
BOTTOM_TAPE
 10
272.00557469080002
 20
122.713652873
 30
0.0
  0
VERTEX
  5
2B5
  8
BOTTOM_TAPE
 10
272.00557469080002
 20
129.11365287300001
 30
0.0
 42
0.449734476209338
  0
VERTEX
  5
2B6
  8
BOTTOM_TAPE
 10
266.96804900663608
 20
133.58143376947021
 30
0.0
  0
VERTEX
  5
2B7
  8
BOTTOM_TAPE
 10
181.5033418395389
 20
123.2990416252737
 30
0.0
  0
VERTEX
  5
2B8
  8
BOTTOM_TAPE
 10
106.377450755674
 20
103.0179920179618
 30
0.0
 42
-0.4038307507290979
  0
VERTEX
  5
2B9
  8
BOTTOM_TAPE
 10
86.310360936473614
 20
114.0834035650406
 30
0.0
 42
-0.4038307507290979
  0
SEQEND
  5
2BA
  8
BOTTOM_TAPE
  0
POLYLINE
  5
17F
  8
BOTTOM_TAPE
 66
     1
 10
0.0
 20
0.0
 30
0.0
 70
   128
 40
0.5
 41
0.5
  0
VERTEX
  5
2BB
  8
BOTTOM_TAPE
 10
271.00557469080002
 20
122.713652873
 30
0.0
  0
VERTEX
  5
2BC
  8
BOTTOM_TAPE
 10
271.00557469080002
 20
129.11365287300001
 30
0.0
 42
0.4497344762093331
  0
VERTEX
  5
2BD
  8
BOTTOM_TAPE
 10
267.08749915867259
 20
132.5885935702546
 30
0.0
  0
VERTEX
  5
2BE
  8
BOTTOM_TAPE
 10
181.6943699763537
 20
122.31481308498471
 30
0.0
  0
VERTEX
  5
2BF
  8
BOTTOM_TAPE
 10
106.6380813813612
 20
102.05255342491
 30
0.0
 42
-0.4038307507290979
  0
VERTEX
  5
2C0
  8
BOTTOM_TAPE
 10
85.354804300391123
 20
113.788595974842
 30
0.0
 42
-0.4038307507290979
  0
SEQEND
  5
2C1
  8
BOTTOM_TAPE
  0
POLYLINE
  5
180
  8
BOTTOM_TAPE
 66
     1
 10
0.0
 20
0.0
 30
0.0
 70
   128
 40
0.5
 41
0.5
  0
VERTEX
  5
2C2
  8
BOTTOM_TAPE
 10
270.00557469080002
 20
122.713652873
 30
0.0
  0
VERTEX
  5
2C3
  8
BOTTOM_TAPE
 10
270.00557469080002
 20
129.11365287300001
 30
0.0
 42
0.449734476209332
  0
VERTEX
  5
2C4
  8
BOTTOM_TAPE
 10
267.20694931070892
 20
131.595753371039
 30
0.0
  0
VERTEX
  5
2C5
  8
BOTTOM_TAPE
 10
181.88539811316849
 20
121.3305845446957
 30
0.0
  0
VERTEX
  5
2C6
  8
BOTTOM_TAPE
 10
106.8987120070484
 20
101.0871148318582
 30
0.0
 42
-0.4038307507290981
  0
VERTEX
  5
2C7
  8
BOTTOM_TAPE
 10
84.399247664308632
 20
113.49378838464339
 30
0.0
 42
-0.4038307507290981
  0
SEQEND
  5
2C8
  8
BOTTOM_TAPE
  0
POLYLINE
  5
1AB
  8
BOTTOM_TAPE
 66
     1
 10
0.0
 20
0.0
 30
0.0
 70
   128
 40
0.5
 41
0.5
  0
VERTEX
  5
2C9
  8
BOTTOM_TAPE
 10
95.865927297298626
 20
117.0314794670262
 30
0.0
 42
0.4038307507290986
  0
VERTEX
  5
2CA
  8
BOTTOM_TAPE
 10
103.7711444988018
 20
112.6723779484801
 30
0.0
  0
VERTEX
  5
2CB
  8
BOTTOM_TAPE
 10
179.5930604713906
 20
133.14132702816389
 30
0.0
  0
VERTEX
  5
2CC
  8
BOTTOM_TAPE
 10
266.21382241025378
 20
143.56280592404411
 30
0.0
 42
-0.4497344762093407
  0
VERTEX
  5
2CD
  8
BOTTOM_TAPE
 10
283.00557469080002
 20
128.6702029358101
 30
0.0
  0
VERTEX
  5
2CE
  8
BOTTOM_TAPE
 10
283.00557469080002
 20
122.713652873
 30
0.0
  0
SEQEND
  5
2CF
  8
BOTTOM_TAPE
  0
ENDSEC
  0
EOF
