  0
SECTION
  2
HEADER
  9
$ACADVER
  1
AC1009
  9
$INSBASE
 10
0.0
 20
0.0
 30
0.0
  9
$EXTMIN
 10
59.882428116400007
 20
45.444922037799991
 30
0.0
  9
$EXTMAX
 10
332.59909523909988
 20
231.10035146407881
 30
0.0
  9
$LIMMIN
 10
0.0
 20
0.0
  9
$LIMMAX
 10
420.0
 20
297.0
  9
$ORTHOMODE
 70
     1
  9
$REGENMODE
 70
     1
  9
$FILLMODE
 70
     1
  9
$QTEXTMODE
 70
     0
  9
$MIRRTEXT
 70
     1
  9
$DRAGMODE
 70
     2
  9
$LTSCALE
 40
23.100000000000001
  9
$OSMODE
 70
     1
  9
$ATTMODE
 70
     1
  9
$TEXTSIZE
 40
0.0
  9
$TRACEWID
 40
0.05
  9
$TEXTSTYLE
  7
STANDARD
  9
$CLAYER
  8
0
  9
$CELTYPE
  6
BYLAYER
  9
$CECOLOR
 62
   256
  9
$DIMSCALE
 40
1.0
  9
$DIMASZ
 40
5.0
  9
$DIMEXO
 40
2.625
  9
$DIMDLI
 40
15.960000000000001
  9
$DIMRND
 40
0.0
  9
$DIMDLE
 40
0.0
  9
$DIMEXE
 40
7.5599999999999987
  9
$DIMTP
 40
0.0
  9
$DIMTM
 40
0.0
  9
$DIMTXT
 40
4.74609375
  9
$DIMCEN
 40
3.7799999999999989
  9
$DIMTSZ
 40
0.0
  9
$DIMTOL
 70
     0
  9
$DIMLIM
 70
     0
  9
$DIMTIH
 70
     1
  9
$DIMTOH
 70
     1
  9
$DIMSE1
 70
     0
  9
$DIMSE2
 70
     0
  9
$DIMTAD
 70
     0
  9
$DIMZIN
 70
     0
  9
$DIMBLK
  1

  9
$DIMASO
 70
     1
  9
$DIMSHO
 70
     1
  9
$DIMPOST
  1

  9
$DIMAPOST
  1

  9
$DIMALT
 70
     0
  9
$DIMALTD
 70
     2
  9
$DIMALTF
 40
25.399999999999999
  9
$DIMLFAC
 40
1.0
  9
$DIMTOFL
 70
     0
  9
$DIMTVP
 40
0.0
  9
$DIMTIX
 70
     0
  9
$DIMSOXD
 70
     0
  9
$DIMSAH
 70
     0
  9
$DIMBLK1
  1

  9
$DIMBLK2
  1

  9
$DIMSTYLE
  2
STANDARD
  9
$DIMCLRD
 70
     0
  9
$DIMCLRE
 70
     0
  9
$DIMCLRT
 70
     0
  9
$DIMTFAC
 40
1.0
  9
$DIMGAP
 40
0.09
  9
$LUNITS
 70
     2
  9
$LUPREC
 70
     4
  9
$SKETCHINC
 40
0.1
  9
$FILLETRAD
 40
0.0
  9
$AUNITS
 70
     0
  9
$AUPREC
 70
     0
  9
$MENU
  1
acad
  9
$ELEVATION
 40
0.0
  9
$PELEVATION
 40
0.0
  9
$THICKNESS
 40
0.0
  9
$LIMCHECK
 70
     0
  9
$BLIPMODE
 70
     0
  9
$CHAMFERA
 40
0.0
  9
$CHAMFERB
 40
0.0
  9
$SKPOLY
 70
     0
  9
$TDCREATE
 40
2451481.5688636568
  9
$TDUPDATE
 40
2451491.5914171292
  9
$TDINDWG
 40
0.044601956
  9
$TDUSRTIMER
 40
0.044601956
  9
$USRTIMER
 70
     1
  9
$ANGBASE
 50
0.0
  9
$ANGDIR
 70
     0
  9
$PDMODE
 70
     0
  9
$PDSIZE
 40
0.0
  9
$PLINEWID
 40
0.5
  9
$COORDS
 70
     1
  9
$SPLFRAME
 70
     0
  9
$SPLINETYPE
 70
     6
  9
$SPLINESEGS
 70
     8
  9
$ATTDIA
 70
     0
  9
$ATTREQ
 70
     1
  9
$HANDLING
 70
  4097
  9
$HANDSEED
  5
3E0
  9
$SURFTAB1
 70
     6
  9
$SURFTAB2
 70
     6
  9
$SURFTYPE
 70
     6
  9
$SURFU
 70
     6
  9
$SURFV
 70
     6
  9
$UCSNAME
  2

  9
$UCSORG
 10
0.0
 20
0.0
 30
0.0
  9
$UCSXDIR
 10
1.0
 20
0.0
 30
0.0
  9
$UCSYDIR
 10
0.0
 20
1.0
 30
0.0
  9
$PUCSNAME
  2

  9
$PUCSORG
 10
0.0
 20
0.0
 30
0.0
  9
$PUCSXDIR
 10
1.0
 20
0.0
 30
0.0
  9
$PUCSYDIR
 10
0.0
 20
1.0
 30
0.0
  9
$USERI1
 70
     0
  9
$USERI2
 70
     0
  9
$USERI3
 70
     0
  9
$USERI4
 70
     0
  9
$USERI5
 70
     0
  9
$USERR1
 40
0.0
  9
$USERR2
 40
0.0
  9
$USERR3
 40
0.0
  9
$USERR4
 40
0.0
  9
$USERR5
 40
0.0
  9
$WORLDVIEW
 70
     1
  9
$SHADEDGE
 70
     3
  9
$SHADEDIF
 70
    70
  9
$TILEMODE
 70
     1
  9
$MAXACTVP
 70
    16
  9
$PLIMCHECK
 70
     0
  9
$PEXTMIN
 10
1.0000000000000000E+020
 20
1.0000000000000000E+020
 30
1.0000000000000000E+020
  9
$PEXTMAX
 10
-1.0000000000000000E+020
 20
-1.0000000000000000E+020
 30
-1.0000000000000000E+020
  9
$PLIMMIN
 10
0.0
 20
0.0
  9
$PLIMMAX
 10
12.0
 20
9.0
  9
$UNITMODE
 70
     0
  9
$VISRETAIN
 70
     0
  9
$PLINEGEN
 70
     1
  9
$PSLTSCALE
 70
     0
  0
ENDSEC
  0
SECTION
  2
TABLES
  0
TABLE
  2
VPORT
 70
     3
  0
VPORT
  2
*ACTIVE
 70
     0
 10
0.0
 20
0.0
 11
1.0
 21
1.0
 12
184.2660055025172
 22
140.93290128472509
 13
0.0
 23
0.0
 14
1.0
 24
1.0
 15
0.0
 25
0.0
 16
0.0
 26
0.0
 36
1.0
 17
0.0
 27
0.0
 37
0.0
 40
227.19183702395679
 41
1.6549789621318369
 42
50.0
 43
0.0
 44
0.0
 50
0.0
 51
0.0
 71
     0
 72
   100
 73
     1
 74
     1
 75
     0
 76
     0
 77
     0
 78
     0
  0
ENDTAB
  0
TABLE
  2
LTYPE
 70
     6
  0
LTYPE
  2
CONTINUOUS
 70
     0
  3
Solid line
 72
    65
 73
     0
 40
0.0
  0
LTYPE
  2
CENTER
 70
     0
  3
____ _ ____ _ ____ _ ____ _ ____ _ ____ _ ____
 72
    65
 73
     4
 40
0.6
 49
0.375
 49
-0.075
 49
0.075
 49
-0.075
  0
LTYPE
  2
HIDDEN
 70
     0
  3
- - - - - - - - - - - - - - - - - - - -
 72
    65
 73
     2
 40
0.2
 49
0.1
 49
-0.1
  0
LTYPE
  2
PHANTOM
 70
     0
  3
_____ _ _ _____ _ _ _____ _ _ _____
 72
    65
 73
     6
 40
0.8
 49
0.45
 49
-0.05
 49
0.1
 49
-0.05
 49
0.1
 49
-0.05
  0
LTYPE
  2
DOT
 70
     0
  3
. . . . . . . . . . . . . . . . . . . .
 72
    65
 73
     2
 40
0.2
 49
0.1
 49
-0.1
  0
LTYPE
  2
DASHED
 70
     0
  3
- - - - - - - - - - - - - - - - - - - -
 72
    65
 73
     2
 40
0.2
 49
0.1
 49
-0.1
  0
ENDTAB
  0
TABLE
  2
LAYER
 70
     6
  0
LAYER
  2
0
 70
     0
 62
     7
  6
CONTINUOUS
  0
LAYER
  2
DEFAULT_1
 70
     0
 62
    -7
  6
CENTER
  0
LAYER
  2
DEFAULT_2
 70
     0
 62
    -8
  6
HIDDEN
  0
LAYER
  2
DEFAULT_3
 70
     0
 62
    -7
  6
PHANTOM
  0
LAYER
  2
TOP_TAPE
 70
     0
 62
     7
  6
CONTINUOUS
  0
LAYER
  2
BOTTOM_TAPE
 70
     0
 62
     7
  6
CONTINUOUS
  0
ENDTAB
  0
TABLE
  2
STYLE
 70
     1
  0
STYLE
  2
STANDARD
 70
     0
 40
0.0
 41
1.0
 50
0.0
 71
     0
 42
0.0
  3
txt
  4

  0
ENDTAB
  0
TABLE
  2
VIEW
 70
     0
  0
ENDTAB
  0
TABLE
  2
UCS
 70
     0
  0
ENDTAB
  0
TABLE
  2
APPID
 70
     1
  0
APPID
  2
ACAD
 70
     0
  0
ENDTAB
  0
TABLE
  2
DIMSTYLE
 70
     1
  0
DIMSTYLE
  2
STANDARD
 70
     0
  3

  4

  5

  6

  7

 40
1.0
 41
5.0
 42
2.625
 43
15.960000000000001
 44
7.5599999999999987
 45
0.0
 46
0.0
 47
0.0
 48
0.0
140
4.74609375
141
3.7799999999999989
142
0.0
143
25.399999999999999
144
1.0
145
0.0
146
1.0
147
0.09
 71
     0
 72
     0
 73
     1
 74
     1
 75
     0
 76
     0
 77
     0
 78
     0
170
     0
171
     2
172
     0
173
     0
174
     0
175
     0
176
     0
177
     0
178
     0
  0
ENDTAB
  0
ENDSEC
  0
SECTION
  2
BLOCKS
  0
BLOCK
  8
0
  2
$MODEL_SPACE
 70
     0
 10
0.0
 20
0.0
 30
0.0
  3
$MODEL_SPACE
  1

  0
ENDBLK
  5
136
  8
0
  0
BLOCK
 67
     1
  8
0
  2
$PAPER_SPACE
 70
     0
 10
0.0
 20
0.0
 30
0.0
  3
$PAPER_SPACE
  1

  0
ENDBLK
  5
134
 67
     1
  8
0
  0
BLOCK
  8
0
  6
BYBLOCK
 62
     2
  2
*D0
 70
     1
 10
0.0
 20
0.0
 30
0.0
  3
*D0
  1

  0
TEXT
  5
30
  8
0
  6
BYBLOCK
 62
     2
 10
249.16176038730001
 20
52.83002010549999
 30
0.0
 40
4.0
  1
21.00
 50
336.14600000000979
 41
1.200000000001102
 72
     5
 11
263.79502325229993
 21
46.359500966799999
 31
0.0
  0
LINE
  5
32
  8
0
  6
BYBLOCK
 62
     2
 10
248.7209385626
 20
74.911359210699999
 30
0.0
 11
239.0083432262
 21
52.9460489147
 31
0.0
  0
LINE
  5
33
  8
0
  6
BYBLOCK
 62
     2
 10
229.51478105230001
 20
83.403915580200007
 30
0.0
 11
219.80218571590001
 21
61.438605284200001
 31
0.0
  0
LINE
  5
34
  8
0
  6
BYBLOCK
 62
     2
 10
240.2215655647
 20
55.6897857019
 30
0.0
 11
230.61848680959989
 21
59.936063886600003
 31
0.0
  0
LINE
  5
35
  8
0
  6
BYBLOCK
 62
     2
 10
230.61848680959989
 20
59.936063886600003
 30
0.0
 11
263.3906158062
 21
45.444922037799991
 31
0.0
  0
LINE
  5
36
  8
0
  6
BYBLOCK
 62
     2
 10
221.01540805440001
 20
64.182342071400001
 30
0.0
 11
230.61848680959989
 21
59.936063886600003
 31
0.0
  0
SOLID
  5
37
  8
0
  6
BYBLOCK
 62
     2
 10
235.97219687640001
 20
58.443486075999999
 30
0.0
 11
235.32514496249999
 21
56.9801597895
 31
0.0
 12
240.2215655647
 22
55.6897857019
 32
0.0
 13
240.2215655647
 23
55.6897857019
 33
0.0
  0
SOLID
  5
38
  8
0
  6
BYBLOCK
 62
     2
 10
225.26477674279991
 20
61.428641697300002
 30
0.0
 11
225.91182865670001
 21
62.891967983800001
 31
0.0
 12
221.01540805440001
 22
64.182342071400001
 32
0.0
 13
221.01540805440001
 23
64.182342071400001
 33
0.0
  0
ENDBLK
  5
39
  8
0
  0
BLOCK
  8
0
  6
BYBLOCK
 62
     2
  2
*D1
 70
     1
 10
0.0
 20
0.0
 30
0.0
  3
*D1
  1

  0
TEXT
  5
3B
  8
0
  6
BYBLOCK
 62
     2
 10
91.257352941199997
 20
51.0625
 30
0.0
 40
4.0
  1
16.00
 41
1.1999999999999991
 72
     5
 11
107.2573529412
 21
51.0625
 31
0.0
  0
LINE
  5
3C
  8
0
  6
BYBLOCK
 62
     2
 10
67.882428116400007
 20
61.229598771100001
 30
0.0
 11
67.882428116400007
 21
47.062499999999993
 31
0.0
  0
LINE
  5
3D
  8
0
  6
BYBLOCK
 62
     2
 10
83.882428116400007
 20
61.229598771100001
 30
0.0
 11
83.882428116400007
 21
47.062499999999993
 31
0.0
  0
LINE
  5
3E
  8
0
  6
BYBLOCK
 62
     2
 10
67.882428116400007
 20
50.0625
 30
0.0
 11
75.882428116400007
 21
50.0625
 31
0.0
  0
LINE
  5
3F
  8
0
  6
BYBLOCK
 62
     2
 10
83.882428116400007
 20
50.0625
 30
0.0
 11
75.882428116400007
 21
50.0625
 31
0.0
  0
LINE
  5
40
  8
0
  6
BYBLOCK
 62
     2
 10
75.882428116400007
 20
50.0625
 30
0.0
 11
107.2573529412
 21
50.0625
 31
0.0
  0
SOLID
  5
41
  8
0
  6
BYBLOCK
 62
     2
 10
72.882428116400007
 20
49.262500000000003
 30
0.0
 11
72.882428116400007
 21
50.86249999999999
 31
0.0
 12
67.882428116400007
 22
50.0625
 32
0.0
 13
67.882428116400007
 23
50.0625
 33
0.0
  0
SOLID
  5
42
  8
0
  6
BYBLOCK
 62
     2
 10
78.882428116400007
 20
50.86249999999999
 30
0.0
 11
78.882428116400007
 21
49.262500000000003
 31
0.0
 12
83.882428116400007
 22
50.0625
 32
0.0
 13
83.882428116400007
 23
50.0625
 33
0.0
  0
ENDBLK
  5
43
  8
0
  0
BLOCK
  8
0
  6
BYBLOCK
 62
     2
  2
*D2
 70
     1
 10
0.0
 20
0.0
 30
0.0
  3
*D2
  1

  0
TEXT
  5
45
  8
0
  6
BYBLOCK
 62
     2
 10
300.4751684112
 20
105.1501850213
 30
0.0
 40
4.0
  1
116.97
 50
66.14599999984614
 41
1.1076923076947249
 72
     5
 11
308.23979137769999
 21
122.71010045929989
 31
0.0
  0
LINE
  5
46
  8
0
  6
BYBLOCK
 62
     2
 10
298.66408143860002
 20
182.9136883946999
 30
0.0
 11
332.59909523909988
 21
167.90834349709991
 31
0.0
  0
LINE
  5
47
  8
0
  6
BYBLOCK
 62
     2
 10
251.35891131299999
 20
75.931702176399995
 30
0.0
 11
285.29392511339989
 21
60.926357278799998
 31
0.0
  0
LINE
  5
48
  8
0
  6
BYBLOCK
 62
     2
 10
329.85535845189992
 20
169.12156583559999
 30
0.0
 11
306.20277338900001
 21
115.6305727264
 31
0.0
  0
LINE
  5
49
  8
0
  6
BYBLOCK
 62
     2
 10
282.55018832619987
 20
62.139579617300001
 30
0.0
 11
306.20277338900001
 21
115.6305727264
 31
0.0
  0
SOLID
  5
4A
  8
0
  6
BYBLOCK
 62
     2
 10
327.10165807779993
 20
164.87219714720001
 30
0.0
 11
328.56498436430002
 21
164.2251452333
 31
0.0
 12
329.85535845189992
 22
169.12156583559999
 32
0.0
 13
329.85535845189992
 23
169.12156583559999
 33
0.0
  0
SOLID
  5
4B
  8
0
  6
BYBLOCK
 62
     2
 10
285.30388870029992
 20
66.388948305599996
 30
0.0
 11
283.8405624138
 21
67.036000219499996
 31
0.0
 12
282.55018832619987
 22
62.139579617300001
 32
0.0
 13
282.55018832619987
 23
62.139579617300001
 33
0.0
  0
ENDBLK
  5
4C
  8
0
  0
BLOCK
  8
0
  2
A$C6A3E132C
 70
     0
 10
0.0
 20
0.0
 30
0.0
  3
A$C6A3E132C
  1

  0
INSERT
  5
13C
  8
0
  2
*U4
 10
0.0
 20
0.0
 30
0.0
  0
INSERT
  5
13D
  8
0
  2
*U5
 10
0.0
 20
0.0
 30
0.0
  0
ENDBLK
  5
13F
  8
0
  0
BLOCK
  8
0
  2
*U4
 70
     1
 10
0.0
 20
0.0
 30
0.0
  3
*U4
  1

  0
TEXT
  5
263
  8
0
 10
18.333333361631869
 20
88.551947393137866
 30
0.0
 40
4.0
  1
TL/TR/BL/BR - I-04
  0
TEXT
  5
264
  8
0
 10
30.666666694965208
 20
81.885280726471194
 30
0.0
 40
4.0
  1
TDL-1002-936
  0
TEXT
  5
265
  8
0
 10
0.0000000282985582
 20
75.218614059804523
 30
0.0
 40
4.0
  1
THIS SIDE IS THE COPPER SIDE
  0
ENDBLK
  5
267
  8
0
  0
BLOCK
  8
0
  2
*U5
 70
     1
 10
0.0
 20
0.0
 30
0.0
  3
*U5
  1

  0
TEXT
  5
269
  8
0
 10
45.012143881822048
 20
5.0000001623593704
 30
0.0
 40
3.0
  1
HI/LOW TENSION
  0
TEXT
  5
26A
  8
0
 10
49.012143881822048
 20
0.0000001623593704
 30
0.0
 40
3.0
  1
CIRCUIT SIDE
  0
ENDBLK
  5
26C
  8
0
  0
BLOCK
  8
0
  2
*U6
 70
     1
 10
0.0
 20
0.0
 30
0.0
  3
*U6
  1

  0
TEXT
  5
26E
  8
0
 10
127.3404095931155
 20
129.25902169363781
 30
0.0
 40
4.0
  1
TL/TR/BL/BR - I-05
  0
TEXT
  5
26F
  8
0
 10
139.6737429264488
 20
122.59235502697121
 30
0.0
 40
4.0
  1
TDL-1002-938
  0
TEXT
  5
270
  8
0
 10
109.0070762597822
 20
115.92568836030451
 30
0.0
 40
4.0
  1
THIS SIDE IS THE COPPER SIDE
  0
ENDBLK
  5
272
  8
0
  0
BLOCK
  8
0
  2
*U7
 70
     1
 10
0.0
 20
0.0
 30
0.0
  3
*U7
  1

  0
TEXT
  5
274
  8
0
 10
93.797140780180627
 20
67.42959877109999
 30
0.0
 40
3.0
  1
HI/LOW TENSION
  0
TEXT
  5
275
  8
0
 10
97.797140780180627
 20
62.42959877109999
 30
0.0
 40
3.0
  1
CIRCUIT SIDE
  0
ENDBLK
  5
277
  8
0
  0
ENDSEC
  0
SECTION
  2
ENTITIES
  0
DIMENSION
  5
4D
  8
0
 62
     2
  2
*D0
 10
221.01540805440001
 20
64.182342071400001
 30
0.0
 11
257.28720671219992
 21
51.423918394300003
 31
0.0
 13
248.7209385626
 23
74.911359210699999
 33
0.0
 14
229.51478105230001
 24
83.403915580200007
 34
0.0
 50
156.1460000000003
  0
DIMENSION
  5
4E
  8
0
 62
     2
  2
*D1
 10
83.882428116400007
 20
50.0625
 30
0.0
 11
99.257352941199997
 21
53.0625
 31
0.0
 13
67.882428116400007
 23
61.229598771100001
 33
0.0
 14
83.882428116400007
 24
61.229598771100001
 34
0.0
  0
DIMENSION
  5
4F
  8
0
 62
     2
  2
*D2
 10
282.55018832619987
 20
62.139579617300001
 30
0.0
 11
302.52832203629993
 21
114.73895763260001
 31
0.0
 13
298.66408143860002
 23
182.9136883946999
 33
0.0
 14
251.35891131299999
 24
75.931702176399995
 34
0.0
 50
246.1460000000005
  0
LINE
  5
54
  8
0
 62
     3
 10
65.379774013299993
 20
113.6788611273999
 30
0.0
 11
60.5907201757
 21
159.97304822410001
 31
0.0
  0
POLYLINE
  5
55
  8
0
 62
     3
 66
     1
 10
0.0
 20
0.0
 30
0.0
  0
VERTEX
  5
240
  8
0
 62
     3
 10
67.102372023900003
 20
80.208580405099994
 30
0.0
  0
VERTEX
  5
241
  8
0
 62
     3
 10
66.793188952999984
 20
82.002882602400007
 30
0.0
  0
VERTEX
  5
242
  8
0
 62
     3
 10
66.472244372399999
 20
83.8110110991
 30
0.0
  0
VERTEX
  5
243
  8
0
 62
     3
 10
66.162484208899997
 20
85.6085804051
 30
0.0
  0
SEQEND
  5
244
  8
0
 62
     3
  0
POLYLINE
  5
5B
  8
0
 62
     3
 66
     1
 10
0.0
 20
0.0
 30
0.0
  0
VERTEX
  5
245
  8
0
 62
     3
 10
66.162484208899997
 20
85.6085804051
 30
0.0
  0
VERTEX
  5
246
  8
0
 62
     3
 10
65.750412908599984
 20
88.261640752900007
 30
0.0
  0
VERTEX
  5
247
  8
0
 62
     3
 10
65.478389966899996
 20
90.794723883800003
 30
0.0
  0
VERTEX
  5
248
  8
0
 62
     3
 10
65.382428116400007
 20
93.194862957400005
 30
0.0
  0
SEQEND
  5
249
  8
0
 62
     3
  0
POLYLINE
  5
61
  8
0
 62
     3
 66
     1
 10
0.0
 20
0.0
 30
0.0
  0
VERTEX
  5
24A
  8
0
 62
     3
 10
67.882428116400007
 20
72.229598771100001
 30
0.0
  0
VERTEX
  5
24B
  8
0
 62
     3
 10
67.7864958734
 20
74.756316102300005
 30
0.0
  0
VERTEX
  5
24C
  8
0
 62
     3
 10
67.514321933299996
 20
77.420523929400005
 30
0.0
  0
VERTEX
  5
24D
  8
0
 62
     3
 10
67.102372023900003
 20
80.208580405099994
 30
0.0
  0
SEQEND
  5
24E
  8
0
 62
     3
  0
LINE
  5
67
  8
0
 62
     3
 10
65.382428116400007
 20
93.194862957400005
 30
0.0
 11
65.382428116400007
 21
113.6274115518999
 31
0.0
  0
LINE
  5
68
  8
0
 62
     3
 10
67.882428116400007
 20
63.229598771100001
 30
0.0
 11
67.882428116400007
 21
72.229598771100001
 31
0.0
  0
LINE
  5
69
  8
0
 62
     3
 10
86.268301683700003
 20
115.8397433001999
 30
0.0
 11
81.479247846099994
 21
162.13393039690001
 31
0.0
  0
LINE
  5
6A
  8
0
 62
     3
 10
83.882428116400007
 20
63.229598771100001
 30
0.0
 11
83.882428116400007
 21
72.229598771100001
 31
0.0
  0
LINE
  5
6B
  8
0
 62
     3
 10
86.382428116400007
 20
93.194862957400005
 30
0.0
 11
86.382428116400007
 21
113.6274115518999
 31
0.0
  0
POLYLINE
  5
6C
  8
0
 62
     3
 66
     1
 10
0.0
 20
0.0
 30
0.0
  0
VERTEX
  5
24F
  8
0
 62
     3
 10
83.882428116400007
 20
72.229598771100001
 30
0.0
  0
VERTEX
  5
250
  8
0
 62
     3
 10
83.978360359400014
 20
74.756316102300005
 30
0.0
  0
VERTEX
  5
251
  8
0
 62
     3
 10
84.250534299500003
 20
77.420523929400005
 30
0.0
  0
VERTEX
  5
252
  8
0
 62
     3
 10
84.662484208899997
 20
80.208580405099994
 30
0.0
  0
SEQEND
  5
253
  8
0
 62
     3
  0
POLYLINE
  5
72
  8
0
 62
     3
 66
     1
 10
0.0
 20
0.0
 30
0.0
  0
VERTEX
  5
254
  8
0
 62
     3
 10
85.602372023900003
 20
85.6085804051
 30
0.0
  0
VERTEX
  5
255
  8
0
 62
     3
 10
86.014443324199988
 20
88.261640752900007
 30
0.0
  0
VERTEX
  5
256
  8
0
 62
     3
 10
86.286466265900003
 20
90.794723883800003
 30
0.0
  0
VERTEX
  5
257
  8
0
 62
     3
 10
86.382428116400007
 20
93.194862957400005
 30
0.0
  0
SEQEND
  5
258
  8
0
 62
     3
  0
POLYLINE
  5
78
  8
0
 62
     3
 66
     1
 10
0.0
 20
0.0
 30
0.0
  0
VERTEX
  5
259
  8
0
 62
     3
 10
84.662484208899997
 20
80.208580405099994
 30
0.0
  0
VERTEX
  5
25A
  8
0
 62
     3
 10
84.971667279799988
 20
82.002882602400007
 30
0.0
  0
VERTEX
  5
25B
  8
0
 62
     3
 10
85.292611860400015
 20
83.8110110991
 30
0.0
  0
VERTEX
  5
25C
  8
0
 62
     3
 10
85.602372023900003
 20
85.6085804051
 30
0.0
  0
SEQEND
  5
25D
  8
0
 62
     3
  0
LINE
  5
7E
  8
0
 62
     3
 10
67.882428116400007
 20
63.229598771100001
 30
0.0
 11
83.882428116400007
 21
63.229598771100001
 31
0.0
  0
LINE
  5
83
  8
0
 62
     3
 10
249.5297534549
 20
76.740517068800003
 30
0.0
 11
230.3235959445999
 21
85.233073438299996
 31
0.0
  0
LINE
  5
85
  8
0
 62
     3
 10
226.79376141430001
 20
210.77895098479991
 30
0.0
 11
229.8591336856
 21
217.71137746599999
 31
0.0
  0
LINE
  5
87
  8
0
 62
     3
 10
245.9999189246
 20
202.2863946151999
 30
0.0
 11
249.0652911958999
 21
209.21882109640001
 31
0.0
  0
LINE
  5
88
  8
0
 62
     3
 10
82.714635743000002
 20
163.7661596611
 30
0.0
 11
229.2716399279
 21
189.21735409039999
 31
0.0
  0
LINE
  5
8A
  8
0
 62
     3
 10
79.121538629699998
 20
184.45648718710001
 30
0.0
 11
225.67854281449999
 21
209.90768161650001
 31
0.0
  0
LINE
  5
8B
  8
0
 62
     3
 10
279.24639585490002
 20
195.87337537289989
 30
0.0
 11
230.3235959445999
 21
85.233073438299996
 31
0.0
  0
LINE
  5
8D
  8
0
 62
     3
 10
251.04377075869999
 20
209.98407832079999
 30
0.0
 11
278.48113863060001
 21
197.8518549357
 31
0.0
  0
LINE
  5
8E
  8
0
 62
     3
 10
298.4525533652
 20
187.38081900329991
 30
0.0
 11
249.5297534549
 21
76.740517068800003
 31
0.0
  0
LINE
  5
8F
  8
0
 62
     3
 10
259.53632712829989
 20
229.190235831
 30
0.0
 11
286.97369500010001
 21
217.05801244599991
 31
0.0
  0
ARC
  5
90
  8
0
 62
     3
 10
64.882428116400007
 20
113.6274115518999
 30
0.0
 40
0.5
 50
0.0
 51
5.9061411138000137
  0
ARC
  5
91
  8
0
 62
     3
 10
82.971285536799996
 20
162.2882791234999
 30
0.0
 40
22.5
 50
99.85177353660022
 51
185.9061411138004
  0
ARC
  5
92
  8
0
 62
     3
 10
225.4218930207
 20
211.3855621539999
 30
0.0
 40
1.5
 50
279.8517735366006
 51
336.1460000000007
  0
ARC
  5
93
  8
0
 62
     3
 10
250.43715958949991
 20
208.6122099271999
 30
0.0
 40
22.5
 50
66.146000000000143
 51
156.1460000000003
  0
ARC
  5
94
  8
0
 62
     3
 10
277.87452746129992
 20
196.47998654209991
 30
0.0
 40
22.5
 50
336.1460000000007
 51
426.14600000000092
  0
ARC
  5
95
  8
0
 62
     3
 10
277.87452746129992
 20
196.47998654209991
 30
0.0
 40
1.5
 50
336.1460000000007
 51
426.14600000000092
  0
ARC
  5
96
  8
0
 62
     3
 10
250.43715958949991
 20
208.6122099271999
 30
0.0
 40
1.5
 50
66.146000000000143
 51
156.1460000000003
  0
ARC
  5
97
  8
0
 62
     3
 10
225.4218930207
 20
211.3855621539999
 30
0.0
 40
22.5
 50
279.8517735366006
 51
336.1460000000007
  0
ARC
  5
98
  8
0
 62
     3
 10
82.971285536799996
 20
162.2882791234999
 30
0.0
 40
1.5
 50
99.85177353660022
 51
185.9061411138004
  0
ARC
  5
99
  8
0
 62
     3
 10
64.882428116400007
 20
113.6274115518999
 30
0.0
 40
21.499999999999989
 50
360.0000000000008
 51
365.90614111380069
  0
LINE
  5
9B
  8
0
 62
     3
 10
59.882428116400007
 20
66.42959877109999
 30
0.0
 11
67.882428116400007
 21
66.42959877109999
 31
0.0
  0
LINE
  5
9C
  8
0
 62
     3
 10
260.7504619947174
 20
76.152554600299339
 30
0.0
 11
251.1473832395744
 21
80.398832785046253
 31
0.0
  0
LINE
  5
9D
  8
0
 62
     3
 10
83.882428116400007
 20
66.42959877109999
 30
0.0
 11
91.882428116400007
 21
66.42959877109999
 31
0.0
  0
LINE
  5
9E
  8
0
 62
     3
 10
231.94122572927321
 20
88.891389154546786
 30
0.0
 11
222.33814697411739
 21
93.137667339299327
 31
0.0
  0
INSERT
  5
141
  8
0
  2
*U6
 10
0.0
 20
0.0
 30
0.0
  0
INSERT
  5
142
  8
0
  2
*U7
 10
0.0
 20
0.0
 30
0.0
  0
POLYLINE
  5
179
  8
TOP_TAPE
 66
     1
 10
0.0
 20
0.0
 30
0.0
 70
   128
 40
0.5
 41
0.5
  0
VERTEX
  5
278
  8
TOP_TAPE
 10
66.382428116400021
 20
91.754653944790334
 30
0.0
  0
VERTEX
  5
279
  8
TOP_TAPE
 10
66.382428116400021
 20
113.6918767652774
 30
0.0
  0
VERTEX
  5
27A
  8
TOP_TAPE
 10
61.681366059730031
 20
159.1481328058062
 30
0.0
 42
-0.394176301993761
  0
VERTEX
  5
27B
  8
TOP_TAPE
 10
80.212250483388388
 20
183.630933973152
 30
0.0
  0
VERTEX
  5
27C
  8
TOP_TAPE
 10
225.3225246084456
 20
208.8308882230007
 30
0.0
 42
0.2506920523837695
  0
VERTEX
  5
27D
  8
TOP_TAPE
 10
227.9247013412633
 20
210.86385008238619
 30
0.0
  0
VERTEX
  5
27E
  8
TOP_TAPE
 10
230.7737126147392
 20
217.30697001996941
 30
0.0
 42
-0.4142135623705059
  0
VERTEX
  5
27F
  8
TOP_TAPE
 10
259.13191968211328
 20
228.27565690198759
 30
0.0
  0
VERTEX
  5
280
  8
TOP_TAPE
 10
286.56928755393471
 20
216.14343351693341
 30
0.0
 42
-0.4142135623729846
  0
VERTEX
  5
281
  8
TOP_TAPE
 10
297.5379744361303
 20
187.7852264494901
 30
0.0
  0
VERTEX
  5
282
  8
TOP_TAPE
 10
248.61517452583541
 20
77.144924514949722
 30
0.0
  0
SEQEND
  5
283
  8
TOP_TAPE
  0
POLYLINE
  5
17A
  8
TOP_TAPE
 66
     1
 10
0.0
 20
0.0
 30
0.0
 70
   128
 40
0.5
 41
0.5
  0
VERTEX
  5
284
  8
TOP_TAPE
 10
67.382428116400021
 20
91.754653944790334
 30
0.0
  0
VERTEX
  5
285
  8
TOP_TAPE
 10
67.382428116400021
 20
113.74344896992579
 30
0.0
  0
VERTEX
  5
286
  8
TOP_TAPE
 10
62.67606078554229
 20
159.25100361041709
 30
0.0
 42
-0.39417630199376
  0
VERTEX
  5
287
  8
TOP_TAPE
 10
80.383350345926942
 20
182.6456802814364
 30
0.0
  0
VERTEX
  5
288
  8
TOP_TAPE
 10
225.4936244709842
 20
207.8456345312851
 30
0.0
 42
0.2506920523837754
  0
VERTEX
  5
289
  8
TOP_TAPE
 10
228.83928027032121
 20
210.4594426362093
 30
0.0
  0
VERTEX
  5
28A
  8
TOP_TAPE
 10
231.68829154379711
 20
216.90256257379249
 30
0.0
 42
-0.4142135623705073
  0
VERTEX
  5
28B
  8
TOP_TAPE
 10
258.72751223594452
 20
227.3610779729261
 30
0.0
  0
VERTEX
  5
28C
  8
TOP_TAPE
 10
286.1648801077659
 20
215.22885458787189
 30
0.0
 42
-0.414213562372984
  0
VERTEX
  5
28D
  8
TOP_TAPE
 10
296.62339550706872
 20
188.1896338956586
 30
0.0
  0
VERTEX
  5
28E
  8
TOP_TAPE
 10
247.7005955967737
 20
77.54933196111817
 30
0.0
  0
SEQEND
  5
28F
  8
TOP_TAPE
  0
POLYLINE
  5
17B
  8
TOP_TAPE
 66
     1
 10
0.0
 20
0.0
 30
0.0
 70
   128
 40
0.5
 41
0.5
  0
VERTEX
  5
290
  8
TOP_TAPE
 10
68.382428116400021
 20
91.754653944790334
 30
0.0
  0
VERTEX
  5
291
  8
TOP_TAPE
 10
68.382428116400021
 20
113.7950211745742
 30
0.0
  0
VERTEX
  5
292
  8
TOP_TAPE
 10
63.670755511354542
 20
159.35387441502789
 30
0.0
 42
-0.3941763019937613
  0
VERTEX
  5
293
  8
TOP_TAPE
 10
80.554450208465497
 20
181.6604265897208
 30
0.0
  0
VERTEX
  5
294
  8
TOP_TAPE
 10
225.66472433352271
 20
206.8603808395695
 30
0.0
 42
0.2506920523837768
  0
VERTEX
  5
295
  8
TOP_TAPE
 10
229.75385919937909
 20
210.05503519003241
 30
0.0
  0
VERTEX
  5
296
  8
TOP_TAPE
 10
232.60287047285499
 20
216.4981551276156
 30
0.0
 42
-0.4142135623705075
  0
VERTEX
  5
297
  8
TOP_TAPE
 10
258.32310478977558
 20
226.44649904386461
 30
0.0
  0
VERTEX
  5
298
  8
TOP_TAPE
 10
285.76047266159702
 20
214.31427565881049
 30
0.0
 42
-0.4142135623729847
  0
VERTEX
  5
299
  8
TOP_TAPE
 10
295.70881657800709
 20
188.59404134182699
 30
0.0
  0
VERTEX
  5
29A
  8
TOP_TAPE
 10
246.78601666771209
 20
77.953739407286619
 30
0.0
  0
SEQEND
  5
29B
  8
TOP_TAPE
  0
POLYLINE
  5
17C
  8
TOP_TAPE
 66
     1
 10
0.0
 20
0.0
 30
0.0
 70
   128
 40
0.5
 41
0.5
  0
VERTEX
  5
29C
  8
TOP_TAPE
 10
84.382428116400021
 20
91.736396238027609
 30
0.0
  0
VERTEX
  5
29D
  8
TOP_TAPE
 10
84.382428116400021
 20
114.6201764489501
 30
0.0
  0
VERTEX
  5
29E
  8
TOP_TAPE
 10
79.585871124350632
 20
160.99980728880141
 30
0.0
 42
-0.3941763019937603
  0
VERTEX
  5
29F
  8
TOP_TAPE
 10
83.292048009082308
 20
165.89636752227059
 30
0.0
  0
VERTEX
  5
2A0
  8
TOP_TAPE
 10
228.4023221341395
 20
191.0963217721193
 30
0.0
 42
0.2506920523837701
  0
VERTEX
  5
2A1
  8
TOP_TAPE
 10
244.3871220643054
 20
203.584516051202
 30
0.0
  0
VERTEX
  5
2A2
  8
TOP_TAPE
 10
247.2361333377813
 20
210.02763598878519
 30
0.0
 42
-0.4142135623705041
  0
VERTEX
  5
2A3
  8
TOP_TAPE
 10
251.85258565107469
 20
211.81323617888111
 30
0.0
  0
VERTEX
  5
2A4
  8
TOP_TAPE
 10
279.28995352289621
 20
199.68101279382699
 30
0.0
 42
-0.4142135623729831
  0
VERTEX
  5
2A5
  8
TOP_TAPE
 10
281.07555371302101
 20
195.06456048052229
 30
0.0
  0
VERTEX
  5
2A6
  8
TOP_TAPE
 10
232.1527538027261
 20
84.424258545981814
 30
0.0
  0
SEQEND
  5
2A7
  8
TOP_TAPE
  0
POLYLINE
  5
17D
  8
TOP_TAPE
 66
     1
 10
0.0
 20
0.0
 30
0.0
 70
   128
 40
0.5
 41
0.5
  0
VERTEX
  5
2A8
  8
TOP_TAPE
 10
82.382428116400021
 20
91.751198837666294
 30
0.0
  0
VERTEX
  5
2A9
  8
TOP_TAPE
 10
82.382428116400021
 20
114.5170320396532
 30
0.0
  0
VERTEX
  5
2AA
  8
TOP_TAPE
 10
77.596481672726114
 20
160.79406567957969
 30
0.0
 42
-0.3941763019937574
  0
VERTEX
  5
2AB
  8
TOP_TAPE
 10
82.949848284005199
 20
167.86687490570179
 30
0.0
  0
VERTEX
  5
2AC
  8
TOP_TAPE
 10
228.0601224090625
 20
193.06682915555049
 30
0.0
 42
0.2506920523837693
  0
VERTEX
  5
2AD
  8
TOP_TAPE
 10
242.55796420618961
 20
204.39333094355581
 30
0.0
  0
VERTEX
  5
2AE
  8
TOP_TAPE
 10
245.4069754796655
 20
210.836450881139
 30
0.0
 42
-0.4142135623704974
  0
VERTEX
  5
2AF
  8
TOP_TAPE
 10
252.66140054341221
 20
213.6423940370041
 30
0.0
  0
VERTEX
  5
2B0
  8
TOP_TAPE
 10
280.09876841523379
 20
201.51017065194989
 30
0.0
 42
-0.4142135623729607
  0
VERTEX
  5
2B1
  8
TOP_TAPE
 10
282.90471157114428
 20
194.2557455881855
 30
0.0
  0
VERTEX
  5
2B2
  8
TOP_TAPE
 10
233.98191166084939
 20
83.615443653644917
 30
0.0
  0
SEQEND
  5
2B3
  8
TOP_TAPE
  0
POLYLINE
  5
17E
  8
TOP_TAPE
 66
     1
 10
0.0
 20
0.0
 30
0.0
 70
   128
 40
4.5
 41
4.5
  0
VERTEX
  5
2B4
  8
TOP_TAPE
 10
79.382428116400021
 20
91.883272738813318
 30
0.0
  0
VERTEX
  5
2B5
  8
TOP_TAPE
 10
79.382428116400021
 20
114.36231542570771
 30
0.0
  0
VERTEX
  5
2B6
  8
TOP_TAPE
 10
74.612397495289343
 20
160.4854532657472
 30
0.0
 42
-0.3941763019937613
  0
VERTEX
  5
2B7
  8
TOP_TAPE
 10
82.436548696389551
 20
170.82263598084879
 30
0.0
  0
VERTEX
  5
2B8
  8
TOP_TAPE
 10
227.5468228214468
 20
196.02259023069749
 30
0.0
 42
0.2506920523837701
  0
VERTEX
  5
2B9
  8
TOP_TAPE
 10
239.81422741901591
 20
205.60655328208651
 30
0.0
  0
VERTEX
  5
2BA
  8
TOP_TAPE
 10
242.6632386924918
 20
212.0496732196697
 30
0.0
 42
-0.414213562370506
  0
VERTEX
  5
2BB
  8
TOP_TAPE
 10
253.8746228819187
 20
216.38613082418851
 30
0.0
  0
VERTEX
  5
2BC
  8
TOP_TAPE
 10
281.31199075374019
 20
204.25390743913431
 30
0.0
 42
-0.4142135623729831
  0
VERTEX
  5
2BD
  8
TOP_TAPE
 10
285.64844835832918
 20
193.04252324967999
 30
0.0
  0
VERTEX
  5
2BE
  8
TOP_TAPE
 10
236.72564844803421
 20
82.402221315139585
 30
0.0
  0
SEQEND
  5
2BF
  8
TOP_TAPE
  0
POLYLINE
  5
17F
  8
TOP_TAPE
 66
     1
 10
0.0
 20
0.0
 30
0.0
 70
   128
 40
4.5
 41
4.5
  0
VERTEX
  5
2C0
  8
TOP_TAPE
 10
71.382428116400021
 20
91.883272738813318
 30
0.0
  0
VERTEX
  5
2C1
  8
TOP_TAPE
 10
71.382428116400021
 20
113.9497377885198
 30
0.0
  0
VERTEX
  5
2C2
  8
TOP_TAPE
 10
66.654839688791313
 20
159.66248682886049
 30
0.0
 42
-0.3941763019937613
  0
VERTEX
  5
2C3
  8
TOP_TAPE
 10
81.067749796081145
 20
178.70466551457389
 30
0.0
  0
VERTEX
  5
2C4
  8
TOP_TAPE
 10
226.17802392113839
 20
203.90461976442251
 30
0.0
 42
0.2506920523837698
  0
VERTEX
  5
2C5
  8
TOP_TAPE
 10
232.4975959865528
 20
208.8418128515018
 30
0.0
  0
VERTEX
  5
2C6
  8
TOP_TAPE
 10
235.34660726002869
 20
215.28493278908491
 30
0.0
 42
-0.4142135623705071
  0
VERTEX
  5
2C7
  8
TOP_TAPE
 10
257.10988245126919
 20
223.70276225668019
 30
0.0
  0
VERTEX
  5
2C8
  8
TOP_TAPE
 10
284.54725032309062
 20
211.5705388716261
 30
0.0
 42
-0.4142135623729837
  0
VERTEX
  5
2C9
  8
TOP_TAPE
 10
292.96507979082207
 20
189.8072636803324
 30
0.0
  0
VERTEX
  5
2CA
  8
TOP_TAPE
 10
244.04227988052719
 20
79.166961745791966
 30
0.0
  0
SEQEND
  5
2CB
  8
TOP_TAPE
  0
POLYLINE
  5
180
  8
TOP_TAPE
 66
     1
 10
0.0
 20
0.0
 30
0.0
 70
   128
 40
0.5
 41
0.5
  0
VERTEX
  5
2CC
  8
TOP_TAPE
 10
75.382428116400021
 20
91.883272738813318
 30
0.0
  0
VERTEX
  5
2CD
  8
TOP_TAPE
 10
75.382428116400021
 20
114.1560266071137
 30
0.0
  0
VERTEX
  5
2CE
  8
TOP_TAPE
 10
70.633618592040335
 20
160.07397004730379
 30
0.0
 42
-0.394176301993761
  0
VERTEX
  5
2CF
  8
TOP_TAPE
 10
81.752149246235348
 20
174.7636507477113
 30
0.0
  0
VERTEX
  5
2D0
  8
TOP_TAPE
 10
226.86242337129261
 20
199.96360499756
 30
0.0
 42
0.2506920523837706
  0
VERTEX
  5
2D1
  8
TOP_TAPE
 10
236.15591170278441
 20
207.2241830667941
 30
0.0
  0
VERTEX
  5
2D2
  8
TOP_TAPE
 10
239.0049229762603
 20
213.66730300437729
 30
0.0
 42
-0.4142135623705052
  0
VERTEX
  5
2D3
  8
TOP_TAPE
 10
255.492252666594
 20
220.04444654043439
 30
0.0
  0
VERTEX
  5
2D4
  8
TOP_TAPE
 10
282.92962053841552
 20
207.91222315538019
 30
0.0
 42
-0.4142135623729854
  0
VERTEX
  5
2D5
  8
TOP_TAPE
 10
289.30676407457571
 20
191.42489346500619
 30
0.0
  0
VERTEX
  5
2D6
  8
TOP_TAPE
 10
240.38396416428071
 20
80.784591530465761
 30
0.0
  0
SEQEND
  5
2D7
  8
TOP_TAPE
  0
POLYLINE
  5
181
  8
TOP_TAPE
 66
     1
 10
0.0
 20
0.0
 30
0.0
 70
   128
 40
0.5
 41
0.5
  0
VERTEX
  5
2D8
  8
TOP_TAPE
 10
76.382428116400021
 20
91.883272738813318
 30
0.0
  0
VERTEX
  5
2D9
  8
TOP_TAPE
 10
76.382428116400021
 20
114.2075988117622
 30
0.0
  0
VERTEX
  5
2DA
  8
TOP_TAPE
 10
71.628313317852587
 20
160.17684085191459
 30
0.0
 42
-0.3941763019937603
  0
VERTEX
  5
2DB
  8
TOP_TAPE
 10
81.923249108773902
 20
173.77839705599561
 30
0.0
  0
VERTEX
  5
2DC
  8
TOP_TAPE
 10
227.03352323383109
 20
198.9783513058444
 30
0.0
 42
0.2506920523837704
  0
VERTEX
  5
2DD
  8
TOP_TAPE
 10
237.0704906318422
 20
206.81977562061721
 30
0.0
  0
VERTEX
  5
2DE
  8
TOP_TAPE
 10
239.9195019053181
 20
213.2628955582004
 30
0.0
 42
-0.4142135623705062
  0
VERTEX
  5
2DF
  8
TOP_TAPE
 10
255.08784522042521
 20
219.1298676113729
 30
0.0
  0
VERTEX
  5
2E0
  8
TOP_TAPE
 10
282.52521309224659
 20
206.9976442263187
 30
0.0
 42
-0.4142135623729836
  0
VERTEX
  5
2E1
  8
TOP_TAPE
 10
288.39218514551408
 20
191.8293009111747
 30
0.0
  0
VERTEX
  5
2E2
  8
TOP_TAPE
 10
239.46938523521919
 20
81.188998976634224
 30
0.0
  0
SEQEND
  5
2E3
  8
TOP_TAPE
  0
POLYLINE
  5
182
  8
TOP_TAPE
 66
     1
 10
0.0
 20
0.0
 30
0.0
 70
   128
 40
0.5
 41
0.5
  0
VERTEX
  5
2E4
  8
TOP_TAPE
 10
74.382428116400021
 20
91.883272738813318
 30
0.0
  0
VERTEX
  5
2E5
  8
TOP_TAPE
 10
74.382428116400021
 20
114.10445440246529
 30
0.0
  0
VERTEX
  5
2E6
  8
TOP_TAPE
 10
69.638923866228083
 20
159.97109924269299
 30
0.0
 42
-0.3941763019937607
  0
VERTEX
  5
2E7
  8
TOP_TAPE
 10
81.581049383696794
 20
175.74890443942701
 30
0.0
  0
VERTEX
  5
2E8
  8
TOP_TAPE
 10
226.6913235087541
 20
200.9488586892756
 30
0.0
 42
0.2506920523837688
  0
VERTEX
  5
2E9
  8
TOP_TAPE
 10
235.2413327737265
 20
207.6285905129711
 30
0.0
  0
VERTEX
  5
2EA
  8
TOP_TAPE
 10
238.09034404720239
 20
214.07171045055409
 30
0.0
 42
-0.4142135623705033
  0
VERTEX
  5
2EB
  8
TOP_TAPE
 10
255.89666011276279
 20
220.9590254694958
 30
0.0
  0
VERTEX
  5
2EC
  8
TOP_TAPE
 10
283.33402798458428
 20
208.82680208444171
 30
0.0
 42
-0.4142135623729861
  0
VERTEX
  5
2ED
  8
TOP_TAPE
 10
290.22134300363729
 20
191.0204860188378
 30
0.0
  0
VERTEX
  5
2EE
  8
TOP_TAPE
 10
241.29854309334229
 20
80.380184084297312
 30
0.0
  0
SEQEND
  5
2EF
  8
TOP_TAPE
  0
LINE
  5
1C7
  8
TOP_TAPE
 10
75.382428116400007
 20
63.229598771100001
 30
0.0
 11
75.382428116400007
 21
74.756316102300005
 31
0.0
  0
LINE
  5
1C8
  8
TOP_TAPE
 10
76.382428116400007
 20
63.229598771100001
 30
0.0
 11
76.382428116400007
 21
74.756316102300005
 31
0.0
  0
LINE
  5
1C9
  8
TOP_TAPE
 10
74.382428116400007
 20
63.229598771100001
 30
0.0
 11
74.382428116400007
 21
74.756316102300005
 31
0.0
  0
LINE
  5
1CB
  8
TOP_TAPE
 10
71.382428116400007
 20
63.229598771100001
 30
0.0
 11
71.382428116400007
 21
74.756316102300005
 31
0.0
  0
LINE
  5
1CC
  8
TOP_TAPE
 10
70.382428116400007
 20
63.229598771100001
 30
0.0
 11
70.382428116400007
 21
74.756316102300005
 31
0.0
  0
LINE
  5
1CD
  8
TOP_TAPE
 10
69.382428116400007
 20
63.229598771100001
 30
0.0
 11
69.382428116400007
 21
74.756316102300005
 31
0.0
  0
LINE
  5
1CF
  8
TOP_TAPE
 10
79.382428116400007
 20
63.229598771100001
 30
0.0
 11
79.382428116400007
 21
74.756316102300005
 31
0.0
  0
POLYLINE
  5
1D1
  8
TOP_TAPE
 66
     1
 10
0.0
 20
0.0
 30
0.0
 70
   128
 40
0.5
 41
0.5
  0
VERTEX
  5
2F0
  8
TOP_TAPE
 10
66.382428116400021
 20
91.883272738813318
 30
0.0
  0
VERTEX
  5
2F1
  8
TOP_TAPE
 10
69.382428116400007
 20
74.756316102300005
 30
0.0
  0
SEQEND
  5
2F2
  8
TOP_TAPE
  0
POLYLINE
  5
1D2
  8
TOP_TAPE
 66
     1
 10
0.0
 20
0.0
 30
0.0
 70
   128
 40
0.5
 41
0.5
  0
VERTEX
  5
2F3
  8
TOP_TAPE
 10
67.382428116400021
 20
91.883272738813318
 30
0.0
  0
VERTEX
  5
2F4
  8
TOP_TAPE
 10
70.382428116400007
 20
74.756316102300005
 30
0.0
  0
SEQEND
  5
2F5
  8
TOP_TAPE
  0
POLYLINE
  5
1D3
  8
TOP_TAPE
 66
     1
 10
0.0
 20
0.0
 30
0.0
 70
   128
 40
0.5
 41
0.5
  0
VERTEX
  5
2F6
  8
TOP_TAPE
 10
68.382428116400021
 20
91.883272738813318
 30
0.0
  0
VERTEX
  5
2F7
  8
TOP_TAPE
 10
71.382428116400007
 20
74.756316102300005
 30
0.0
  0
SEQEND
  5
2F8
  8
TOP_TAPE
  0
POLYLINE
  5
1D4
  8
TOP_TAPE
 66
     1
 10
0.0
 20
0.0
 30
0.0
 70
   128
 40
0.5
 41
0.5
  0
VERTEX
  5
2F9
  8
TOP_TAPE
 10
74.382428116400021
 20
91.883272738813318
 30
0.0
  0
VERTEX
  5
2FA
  8
TOP_TAPE
 10
74.382428116400007
 20
74.756316102300005
 30
0.0
  0
SEQEND
  5
2FB
  8
TOP_TAPE
  0
POLYLINE
  5
1D5
  8
TOP_TAPE
 66
     1
 10
0.0
 20
0.0
 30
0.0
 70
   128
 40
0.5
 41
0.5
  0
VERTEX
  5
2FC
  8
TOP_TAPE
 10
75.382428116400021
 20
91.883272738813318
 30
0.0
  0
VERTEX
  5
2FD
  8
TOP_TAPE
 10
75.382428116400007
 20
74.756316102300005
 30
0.0
  0
SEQEND
  5
2FE
  8
TOP_TAPE
  0
POLYLINE
  5
1D6
  8
TOP_TAPE
 66
     1
 10
0.0
 20
0.0
 30
0.0
 70
   128
 40
0.5
 41
0.5
  0
VERTEX
  5
2FF
  8
TOP_TAPE
 10
76.382428116400021
 20
91.883272738813318
 30
0.0
  0
VERTEX
  5
300
  8
TOP_TAPE
 10
76.382428116400007
 20
74.756316102300005
 30
0.0
  0
SEQEND
  5
301
  8
TOP_TAPE
  0
POLYLINE
  5
1D7
  8
TOP_TAPE
 66
     1
 10
0.0
 20
0.0
 30
0.0
 70
   128
 40
0.5
 41
0.5
  0
VERTEX
  5
302
  8
TOP_TAPE
 10
82.382428116400021
 20
91.883272738813318
 30
0.0
  0
VERTEX
  5
303
  8
TOP_TAPE
 10
79.382428116400007
 20
74.756316102300005
 30
0.0
  0
SEQEND
  5
304
  8
TOP_TAPE
  0
POLYLINE
  5
1D9
  8
TOP_TAPE
 66
     1
 10
0.0
 20
0.0
 30
0.0
 70
   128
 40
0.5
 41
0.5
  0
VERTEX
  5
305
  8
TOP_TAPE
 10
69.382428116400007
 20
74.756316102300005
 30
0.0
  0
VERTEX
  5
306
  8
TOP_TAPE
 10
69.382428116400007
 20
63.229598771100001
 30
0.0
  0
SEQEND
  5
307
  8
TOP_TAPE
  0
POLYLINE
  5
1DA
  8
TOP_TAPE
 66
     1
 10
0.0
 20
0.0
 30
0.0
 70
   128
 40
0.5
 41
0.5
  0
VERTEX
  5
308
  8
TOP_TAPE
 10
70.382428116400007
 20
74.756316102300005
 30
0.0
  0
VERTEX
  5
309
  8
TOP_TAPE
 10
70.382428116400007
 20
63.229598771100001
 30
0.0
  0
SEQEND
  5
30A
  8
TOP_TAPE
  0
POLYLINE
  5
1DB
  8
TOP_TAPE
 66
     1
 10
0.0
 20
0.0
 30
0.0
 70
   128
 40
0.5
 41
0.5
  0
VERTEX
  5
30B
  8
TOP_TAPE
 10
71.382428116400007
 20
74.756316102300005
 30
0.0
  0
VERTEX
  5
30C
  8
TOP_TAPE
 10
71.382428116400007
 20
63.229598771100001
 30
0.0
  0
SEQEND
  5
30D
  8
TOP_TAPE
  0
POLYLINE
  5
1DC
  8
TOP_TAPE
 66
     1
 10
0.0
 20
0.0
 30
0.0
 70
   128
 40
0.5
 41
0.5
  0
VERTEX
  5
30E
  8
TOP_TAPE
 10
74.382428116400007
 20
74.756316102300005
 30
0.0
  0
VERTEX
  5
30F
  8
TOP_TAPE
 10
74.382428116400007
 20
63.229598771100001
 30
0.0
  0
SEQEND
  5
310
  8
TOP_TAPE
  0
POLYLINE
  5
1DD
  8
TOP_TAPE
 66
     1
 10
0.0
 20
0.0
 30
0.0
 70
   128
 40
0.5
 41
0.5
  0
VERTEX
  5
311
  8
TOP_TAPE
 10
75.382428116400007
 20
74.756316102300005
 30
0.0
  0
VERTEX
  5
312
  8
TOP_TAPE
 10
75.382428116400007
 20
63.229598771100001
 30
0.0
  0
SEQEND
  5
313
  8
TOP_TAPE
  0
POLYLINE
  5
1DE
  8
TOP_TAPE
 66
     1
 10
0.0
 20
0.0
 30
0.0
 70
   128
 40
0.5
 41
0.5
  0
VERTEX
  5
314
  8
TOP_TAPE
 10
76.382428116400007
 20
74.756316102300005
 30
0.0
  0
VERTEX
  5
315
  8
TOP_TAPE
 10
76.382428116400007
 20
63.229598771100001
 30
0.0
  0
SEQEND
  5
316
  8
TOP_TAPE
  0
POLYLINE
  5
1DF
  8
TOP_TAPE
 66
     1
 10
0.0
 20
0.0
 30
0.0
 70
   128
 40
0.5
 41
0.5
  0
VERTEX
  5
317
  8
TOP_TAPE
 10
79.382428116400007
 20
74.756316102300005
 30
0.0
  0
VERTEX
  5
318
  8
TOP_TAPE
 10
79.382428116400007
 20
63.229598771100001
 30
0.0
  0
SEQEND
  5
319
  8
TOP_TAPE
  0
POLYLINE
  5
1E0
  8
TOP_TAPE
 66
     1
 10
0.0
 20
0.0
 30
0.0
 70
   128
 40
0.5
 41
0.5
  0
VERTEX
  5
31A
  8
TOP_TAPE
 10
80.382428116400007
 20
74.756316102300005
 30
0.0
  0
VERTEX
  5
31B
  8
TOP_TAPE
 10
80.382428116400007
 20
63.229598771100001
 30
0.0
  0
SEQEND
  5
31C
  8
TOP_TAPE
  0
POLYLINE
  5
1E1
  8
TOP_TAPE
 66
     1
 10
0.0
 20
0.0
 30
0.0
 70
   128
 40
1.5
 41
1.5
  0
VERTEX
  5
31D
  8
TOP_TAPE
 10
72.882428116400007
 20
63.229598771100001
 30
0.0
  0
VERTEX
  5
31E
  8
TOP_TAPE
 10
72.882428116400007
 20
74.756316102300005
 30
0.0
  0
SEQEND
  5
31F
  8
TOP_TAPE
  0
POLYLINE
  5
1E2
  8
TOP_TAPE
 66
     1
 10
0.0
 20
0.0
 30
0.0
 70
   128
 40
1.5
 41
1.5
  0
VERTEX
  5
320
  8
TOP_TAPE
 10
77.882428116400007
 20
63.229598771100001
 30
0.0
  0
VERTEX
  5
321
  8
TOP_TAPE
 10
77.882428116400007
 20
74.756316102300005
 30
0.0
  0
SEQEND
  5
322
  8
TOP_TAPE
  0
POLYLINE
  5
1E3
  8
TOP_TAPE
 66
     1
 10
0.0
 20
0.0
 30
0.0
 70
   128
 40
4.5435397412480576
 41
1.4742000963736841
  0
VERTEX
  5
323
  8
TOP_TAPE
 10
71.36065824577598
 20
92.131840492253502
 30
0.0
  0
VERTEX
  5
324
  8
TOP_TAPE
 10
72.895328068213161
 20
74.609024825421955
 30
0.0
 40
1.5
 41
1.5
  0
SEQEND
  5
325
  8
TOP_TAPE
  0
POLYLINE
  5
1E4
  8
TOP_TAPE
 66
     1
 10
0.0
 20
0.0
 30
0.0
 70
   128
 40
4.5435397412480576
 41
1.474200096373683
  0
VERTEX
  5
326
  8
TOP_TAPE
 10
79.404197987024034
 20
92.131840492253502
 30
0.0
  0
VERTEX
  5
327
  8
TOP_TAPE
 10
77.869528164586853
 20
74.609024825421955
 30
0.0
 40
1.5
 41
1.5
  0
SEQEND
  5
328
  8
TOP_TAPE
  0
POLYLINE
  5
1EA
  8
BOTTOM_TAPE
 66
     1
 10
0.0
 20
0.0
 30
0.0
 70
   128
 40
0.5
 41
0.5
  0
VERTEX
  5
329
  8
BOTTOM_TAPE
 10
84.382428116400035
 20
91.736396238027609
 30
0.0
  0
VERTEX
  5
32A
  8
BOTTOM_TAPE
 10
84.382428116400035
 20
114.6201764489501
 30
0.0
  0
VERTEX
  5
32B
  8
BOTTOM_TAPE
 10
79.585871124350632
 20
160.99980728880141
 30
0.0
 42
-0.3941763019937603
  0
VERTEX
  5
32C
  8
BOTTOM_TAPE
 10
83.292048009082293
 20
165.89636752227059
 30
0.0
  0
VERTEX
  5
32D
  8
BOTTOM_TAPE
 10
228.4023221341395
 20
191.0963217721193
 30
0.0
 42
0.2506920523837701
  0
VERTEX
  5
32E
  8
BOTTOM_TAPE
 10
244.3871220643054
 20
203.584516051202
 30
0.0
  0
VERTEX
  5
32F
  8
BOTTOM_TAPE
 10
247.2361333377813
 20
210.02763598878519
 30
0.0
 42
-0.4142135623705041
  0
VERTEX
  5
330
  8
BOTTOM_TAPE
 10
251.85258565107469
 20
211.81323617888111
 30
0.0
  0
VERTEX
  5
331
  8
BOTTOM_TAPE
 10
279.28995352289621
 20
199.68101279382699
 30
0.0
 42
-0.4142135623729831
  0
VERTEX
  5
332
  8
BOTTOM_TAPE
 10
281.07555371302101
 20
195.06456048052229
 30
0.0
  0
VERTEX
  5
333
  8
BOTTOM_TAPE
 10
232.1527538027261
 20
84.424258545981814
 30
0.0
  0
SEQEND
  5
334
  8
BOTTOM_TAPE
  0
POLYLINE
  5
1EB
  8
BOTTOM_TAPE
 66
     1
 10
0.0
 20
0.0
 30
0.0
 70
   128
 40
0.5
 41
0.5
  0
VERTEX
  5
335
  8
BOTTOM_TAPE
 10
82.382428116400035
 20
91.751198837666294
 30
0.0
  0
VERTEX
  5
336
  8
BOTTOM_TAPE
 10
82.382428116400035
 20
114.5170320396532
 30
0.0
  0
VERTEX
  5
337
  8
BOTTOM_TAPE
 10
77.596481672726114
 20
160.79406567957969
 30
0.0
 42
-0.3941763019937574
  0
VERTEX
  5
338
  8
BOTTOM_TAPE
 10
82.949848284005199
 20
167.86687490570179
 30
0.0
  0
VERTEX
  5
339
  8
BOTTOM_TAPE
 10
228.0601224090625
 20
193.06682915555049
 30
0.0
 42
0.2506920523837693
  0
VERTEX
  5
33A
  8
BOTTOM_TAPE
 10
242.55796420618961
 20
204.39333094355581
 30
0.0
  0
VERTEX
  5
33B
  8
BOTTOM_TAPE
 10
245.4069754796655
 20
210.836450881139
 30
0.0
 42
-0.4142135623704974
  0
VERTEX
  5
33C
  8
BOTTOM_TAPE
 10
252.66140054341221
 20
213.6423940370041
 30
0.0
  0
VERTEX
  5
33D
  8
BOTTOM_TAPE
 10
280.09876841523379
 20
201.51017065194989
 30
0.0
 42
-0.4142135623729607
  0
VERTEX
  5
33E
  8
BOTTOM_TAPE
 10
282.90471157114428
 20
194.2557455881855
 30
0.0
  0
VERTEX
  5
33F
  8
BOTTOM_TAPE
 10
233.98191166084939
 20
83.615443653644917
 30
0.0
  0
SEQEND
  5
340
  8
BOTTOM_TAPE
  0
POLYLINE
  5
1EC
  8
BOTTOM_TAPE
 66
     1
 10
0.0
 20
0.0
 30
0.0
 70
   128
 40
4.5
 41
4.5
  0
VERTEX
  5
341
  8
BOTTOM_TAPE
 10
79.382428116400035
 20
91.883272738813318
 30
0.0
  0
VERTEX
  5
342
  8
BOTTOM_TAPE
 10
79.382428116400035
 20
114.36231542570771
 30
0.0
  0
VERTEX
  5
343
  8
BOTTOM_TAPE
 10
74.612397495289372
 20
160.4854532657472
 30
0.0
 42
-0.3941763019937613
  0
VERTEX
  5
344
  8
BOTTOM_TAPE
 10
82.436548696389536
 20
170.82263598084879
 30
0.0
  0
VERTEX
  5
345
  8
BOTTOM_TAPE
 10
227.5468228214468
 20
196.02259023069749
 30
0.0
 42
0.2506920523837701
  0
VERTEX
  5
346
  8
BOTTOM_TAPE
 10
239.81422741901591
 20
205.60655328208651
 30
0.0
  0
VERTEX
  5
347
  8
BOTTOM_TAPE
 10
242.6632386924918
 20
212.0496732196697
 30
0.0
 42
-0.414213562370506
  0
VERTEX
  5
348
  8
BOTTOM_TAPE
 10
253.8746228819187
 20
216.38613082418851
 30
0.0
  0
VERTEX
  5
349
  8
BOTTOM_TAPE
 10
281.31199075374019
 20
204.25390743913431
 30
0.0
 42
-0.4142135623729831
  0
VERTEX
  5
34A
  8
BOTTOM_TAPE
 10
285.64844835832918
 20
193.04252324967999
 30
0.0
  0
VERTEX
  5
34B
  8
BOTTOM_TAPE
 10
236.72564844803421
 20
82.402221315139585
 30
0.0
  0
SEQEND
  5
34C
  8
BOTTOM_TAPE
  0
POLYLINE
  5
1ED
  8
BOTTOM_TAPE
 66
     1
 10
0.0
 20
0.0
 30
0.0
 70
   128
 40
0.5
 41
0.5
  0
VERTEX
  5
34D
  8
BOTTOM_TAPE
 10
74.382428116400035
 20
91.883272738813318
 30
0.0
  0
VERTEX
  5
34E
  8
BOTTOM_TAPE
 10
74.382428116400035
 20
114.10445440246529
 30
0.0
  0
VERTEX
  5
34F
  8
BOTTOM_TAPE
 10
69.638923866228083
 20
159.97109924269299
 30
0.0
 42
-0.3941763019937607
  0
VERTEX
  5
350
  8
BOTTOM_TAPE
 10
81.581049383696794
 20
175.74890443942701
 30
0.0
  0
VERTEX
  5
351
  8
BOTTOM_TAPE
 10
226.6913235087541
 20
200.9488586892756
 30
0.0
 42
0.2506920523837688
  0
VERTEX
  5
352
  8
BOTTOM_TAPE
 10
235.2413327737265
 20
207.6285905129711
 30
0.0
  0
VERTEX
  5
353
  8
BOTTOM_TAPE
 10
238.09034404720239
 20
214.07171045055409
 30
0.0
 42
-0.4142135623705033
  0
VERTEX
  5
354
  8
BOTTOM_TAPE
 10
255.89666011276279
 20
220.9590254694958
 30
0.0
  0
VERTEX
  5
355
  8
BOTTOM_TAPE
 10
283.33402798458428
 20
208.82680208444171
 30
0.0
 42
-0.4142135623729861
  0
VERTEX
  5
356
  8
BOTTOM_TAPE
 10
290.22134300363729
 20
191.0204860188378
 30
0.0
  0
VERTEX
  5
357
  8
BOTTOM_TAPE
 10
241.29854309334229
 20
80.380184084297312
 30
0.0
  0
SEQEND
  5
358
  8
BOTTOM_TAPE
  0
POLYLINE
  5
1EE
  8
BOTTOM_TAPE
 66
     1
 10
0.0
 20
0.0
 30
0.0
 70
   128
 40
0.5
 41
0.5
  0
VERTEX
  5
359
  8
BOTTOM_TAPE
 10
75.382428116400035
 20
91.883272738813318
 30
0.0
  0
VERTEX
  5
35A
  8
BOTTOM_TAPE
 10
75.382428116400035
 20
114.1560266071137
 30
0.0
  0
VERTEX
  5
35B
  8
BOTTOM_TAPE
 10
70.633618592040335
 20
160.07397004730379
 30
0.0
 42
-0.394176301993761
  0
VERTEX
  5
35C
  8
BOTTOM_TAPE
 10
81.752149246235348
 20
174.7636507477113
 30
0.0
  0
VERTEX
  5
35D
  8
BOTTOM_TAPE
 10
226.86242337129261
 20
199.96360499756
 30
0.0
 42
0.2506920523837706
  0
VERTEX
  5
35E
  8
BOTTOM_TAPE
 10
236.15591170278441
 20
207.2241830667941
 30
0.0
  0
VERTEX
  5
35F
  8
BOTTOM_TAPE
 10
239.0049229762603
 20
213.66730300437729
 30
0.0
 42
-0.4142135623705052
  0
VERTEX
  5
360
  8
BOTTOM_TAPE
 10
255.492252666594
 20
220.04444654043439
 30
0.0
  0
VERTEX
  5
361
  8
BOTTOM_TAPE
 10
282.92962053841552
 20
207.91222315538019
 30
0.0
 42
-0.4142135623729854
  0
VERTEX
  5
362
  8
BOTTOM_TAPE
 10
289.30676407457571
 20
191.42489346500619
 30
0.0
  0
VERTEX
  5
363
  8
BOTTOM_TAPE
 10
240.38396416428071
 20
80.784591530465761
 30
0.0
  0
SEQEND
  5
364
  8
BOTTOM_TAPE
  0
POLYLINE
  5
1EF
  8
BOTTOM_TAPE
 66
     1
 10
0.0
 20
0.0
 30
0.0
 70
   128
 40
0.5
 41
0.5
  0
VERTEX
  5
365
  8
BOTTOM_TAPE
 10
76.382428116400035
 20
91.883272738813318
 30
0.0
  0
VERTEX
  5
366
  8
BOTTOM_TAPE
 10
76.382428116400035
 20
114.2075988117622
 30
0.0
  0
VERTEX
  5
367
  8
BOTTOM_TAPE
 10
71.628313317852587
 20
160.17684085191459
 30
0.0
 42
-0.3941763019937603
  0
VERTEX
  5
368
  8
BOTTOM_TAPE
 10
81.923249108773916
 20
173.77839705599561
 30
0.0
  0
VERTEX
  5
369
  8
BOTTOM_TAPE
 10
227.03352323383109
 20
198.9783513058444
 30
0.0
 42
0.2506920523837704
  0
VERTEX
  5
36A
  8
BOTTOM_TAPE
 10
237.0704906318422
 20
206.81977562061721
 30
0.0
  0
VERTEX
  5
36B
  8
BOTTOM_TAPE
 10
239.9195019053181
 20
213.2628955582004
 30
0.0
 42
-0.4142135623705062
  0
VERTEX
  5
36C
  8
BOTTOM_TAPE
 10
255.08784522042521
 20
219.1298676113729
 30
0.0
  0
VERTEX
  5
36D
  8
BOTTOM_TAPE
 10
282.52521309224659
 20
206.9976442263187
 30
0.0
 42
-0.4142135623729836
  0
VERTEX
  5
36E
  8
BOTTOM_TAPE
 10
288.39218514551408
 20
191.8293009111747
 30
0.0
  0
VERTEX
  5
36F
  8
BOTTOM_TAPE
 10
239.46938523521919
 20
81.188998976634224
 30
0.0
  0
SEQEND
  5
370
  8
BOTTOM_TAPE
  0
POLYLINE
  5
1F5
  8
BOTTOM_TAPE
 66
     1
 10
0.0
 20
0.0
 30
0.0
 70
   128
 40
4.5435397412480576
 41
1.474200096373683
  0
VERTEX
  5
371
  8
BOTTOM_TAPE
 10
79.404197987024034
 20
92.131840492253502
 30
0.0
  0
VERTEX
  5
372
  8
BOTTOM_TAPE
 10
77.869528164586853
 20
74.609024825421955
 30
0.0
 40
1.5
 41
1.5
  0
SEQEND
  5
373
  8
BOTTOM_TAPE
  0
POLYLINE
  5
1F8
  8
BOTTOM_TAPE
 66
     1
 10
0.0
 20
0.0
 30
0.0
 70
   128
 40
4.5435397412480576
 41
1.4742000963736841
  0
VERTEX
  5
374
  8
BOTTOM_TAPE
 10
71.360658245775994
 20
92.131840492253502
 30
0.0
  0
VERTEX
  5
375
  8
BOTTOM_TAPE
 10
72.895328068213161
 20
74.609024825421955
 30
0.0
 40
1.5
 41
1.5
  0
SEQEND
  5
376
  8
BOTTOM_TAPE
  0
POLYLINE
  5
1F9
  8
BOTTOM_TAPE
 66
     1
 10
0.0
 20
0.0
 30
0.0
 70
   128
 40
0.5
 41
0.5
  0
VERTEX
  5
377
  8
BOTTOM_TAPE
 10
76.382428116400035
 20
91.883272738813318
 30
0.0
  0
VERTEX
  5
378
  8
BOTTOM_TAPE
 10
76.382428116400007
 20
74.756316102300005
 30
0.0
  0
SEQEND
  5
379
  8
BOTTOM_TAPE
  0
POLYLINE
  5
1FA
  8
BOTTOM_TAPE
 66
     1
 10
0.0
 20
0.0
 30
0.0
 70
   128
 40
0.5
 41
0.5
  0
VERTEX
  5
37A
  8
BOTTOM_TAPE
 10
75.382428116400035
 20
91.883272738813318
 30
0.0
  0
VERTEX
  5
37B
  8
BOTTOM_TAPE
 10
75.382428116400007
 20
74.756316102300005
 30
0.0
  0
SEQEND
  5
37C
  8
BOTTOM_TAPE
  0
POLYLINE
  5
1FB
  8
BOTTOM_TAPE
 66
     1
 10
0.0
 20
0.0
 30
0.0
 70
   128
 40
0.5
 41
0.5
  0
VERTEX
  5
37D
  8
BOTTOM_TAPE
 10
74.382428116400035
 20
91.883272738813318
 30
0.0
  0
VERTEX
  5
37E
  8
BOTTOM_TAPE
 10
74.382428116400007
 20
74.756316102300005
 30
0.0
  0
SEQEND
  5
37F
  8
BOTTOM_TAPE
  0
POLYLINE
  5
1FC
  8
BOTTOM_TAPE
 66
     1
 10
0.0
 20
0.0
 30
0.0
 70
   128
 40
0.5
 41
0.5
  0
VERTEX
  5
380
  8
BOTTOM_TAPE
 10
68.382428116400035
 20
91.883272738813318
 30
0.0
  0
VERTEX
  5
381
  8
BOTTOM_TAPE
 10
71.382428116400007
 20
74.756316102300005
 30
0.0
  0
SEQEND
  5
382
  8
BOTTOM_TAPE
  0
POLYLINE
  5
1FD
  8
BOTTOM_TAPE
 66
     1
 10
0.0
 20
0.0
 30
0.0
 70
   128
 40
0.5
 41
0.5
  0
VERTEX
  5
383
  8
BOTTOM_TAPE
 10
67.382428116400035
 20
91.883272738813318
 30
0.0
  0
VERTEX
  5
384
  8
BOTTOM_TAPE
 10
70.382428116400007
 20
74.756316102300005
 30
0.0
  0
SEQEND
  5
385
  8
BOTTOM_TAPE
  0
POLYLINE
  5
1FE
  8
BOTTOM_TAPE
 66
     1
 10
0.0
 20
0.0
 30
0.0
 70
   128
 40
0.5
 41
0.5
  0
VERTEX
  5
386
  8
BOTTOM_TAPE
 10
66.382428116400035
 20
91.883272738813318
 30
0.0
  0
VERTEX
  5
387
  8
BOTTOM_TAPE
 10
69.382428116400007
 20
74.756316102300005
 30
0.0
  0
SEQEND
  5
388
  8
BOTTOM_TAPE
  0
POLYLINE
  5
201
  8
BOTTOM_TAPE
 66
     1
 10
0.0
 20
0.0
 30
0.0
 70
   128
 40
1.5
 41
1.5
  0
VERTEX
  5
389
  8
BOTTOM_TAPE
 10
77.882428116400007
 20
63.229598771100001
 30
0.0
  0
VERTEX
  5
38A
  8
BOTTOM_TAPE
 10
77.882428116400007
 20
74.756316102300005
 30
0.0
  0
SEQEND
  5
38B
  8
BOTTOM_TAPE
  0
POLYLINE
  5
202
  8
BOTTOM_TAPE
 66
     1
 10
0.0
 20
0.0
 30
0.0
 70
   128
 40
1.5
 41
1.5
  0
VERTEX
  5
38C
  8
BOTTOM_TAPE
 10
72.882428116400007
 20
63.229598771100001
 30
0.0
  0
VERTEX
  5
38D
  8
BOTTOM_TAPE
 10
72.882428116400007
 20
74.756316102300005
 30
0.0
  0
SEQEND
  5
38E
  8
BOTTOM_TAPE
  0
POLYLINE
  5
203
  8
BOTTOM_TAPE
 66
     1
 10
0.0
 20
0.0
 30
0.0
 70
   128
 40
0.5
 41
0.5
  0
VERTEX
  5
38F
  8
BOTTOM_TAPE
 10
76.382428116400007
 20
74.756316102300005
 30
0.0
  0
VERTEX
  5
390
  8
BOTTOM_TAPE
 10
76.382428116400007
 20
63.229598771100001
 30
0.0
  0
SEQEND
  5
391
  8
BOTTOM_TAPE
  0
POLYLINE
  5
204
  8
BOTTOM_TAPE
 66
     1
 10
0.0
 20
0.0
 30
0.0
 70
   128
 40
0.5
 41
0.5
  0
VERTEX
  5
392
  8
BOTTOM_TAPE
 10
75.382428116400007
 20
74.756316102300005
 30
0.0
  0
VERTEX
  5
393
  8
BOTTOM_TAPE
 10
75.382428116400007
 20
63.229598771100001
 30
0.0
  0
SEQEND
  5
394
  8
BOTTOM_TAPE
  0
POLYLINE
  5
205
  8
BOTTOM_TAPE
 66
     1
 10
0.0
 20
0.0
 30
0.0
 70
   128
 40
0.5
 41
0.5
  0
VERTEX
  5
395
  8
BOTTOM_TAPE
 10
74.382428116400007
 20
74.756316102300005
 30
0.0
  0
VERTEX
  5
396
  8
BOTTOM_TAPE
 10
74.382428116400007
 20
63.229598771100001
 30
0.0
  0
SEQEND
  5
397
  8
BOTTOM_TAPE
  0
POLYLINE
  5
206
  8
BOTTOM_TAPE
 66
     1
 10
0.0
 20
0.0
 30
0.0
 70
   128
 40
0.5
 41
0.5
  0
VERTEX
  5
398
  8
BOTTOM_TAPE
 10
71.382428116400007
 20
74.756316102300005
 30
0.0
  0
VERTEX
  5
399
  8
BOTTOM_TAPE
 10
71.382428116400007
 20
63.229598771100001
 30
0.0
  0
SEQEND
  5
39A
  8
BOTTOM_TAPE
  0
POLYLINE
  5
207
  8
BOTTOM_TAPE
 66
     1
 10
0.0
 20
0.0
 30
0.0
 70
   128
 40
0.5
 41
0.5
  0
VERTEX
  5
39B
  8
BOTTOM_TAPE
 10
70.382428116400007
 20
74.756316102300005
 30
0.0
  0
VERTEX
  5
39C
  8
BOTTOM_TAPE
 10
70.382428116400007
 20
63.229598771100001
 30
0.0
  0
SEQEND
  5
39D
  8
BOTTOM_TAPE
  0
POLYLINE
  5
208
  8
BOTTOM_TAPE
 66
     1
 10
0.0
 20
0.0
 30
0.0
 70
   128
 40
0.5
 41
0.5
  0
VERTEX
  5
39E
  8
BOTTOM_TAPE
 10
69.382428116400007
 20
74.756316102300005
 30
0.0
  0
VERTEX
  5
39F
  8
BOTTOM_TAPE
 10
69.382428116400007
 20
63.229598771100001
 30
0.0
  0
SEQEND
  5
3A0
  8
BOTTOM_TAPE
  0
LINE
  5
209
  8
BOTTOM_TAPE
 10
69.382428116400007
 20
63.229598771100001
 30
0.0
 11
69.382428116400007
 21
74.756316102300005
 31
0.0
  0
LINE
  5
20A
  8
BOTTOM_TAPE
 10
70.382428116400007
 20
63.229598771100001
 30
0.0
 11
70.382428116400007
 21
74.756316102300005
 31
0.0
  0
LINE
  5
20B
  8
BOTTOM_TAPE
 10
71.382428116400007
 20
63.229598771100001
 30
0.0
 11
71.382428116400007
 21
74.756316102300005
 31
0.0
  0
LINE
  5
20C
  8
BOTTOM_TAPE
 10
74.382428116400007
 20
63.229598771100001
 30
0.0
 11
74.382428116400007
 21
74.756316102300005
 31
0.0
  0
LINE
  5
20D
  8
BOTTOM_TAPE
 10
76.382428116400007
 20
63.229598771100001
 30
0.0
 11
76.382428116400007
 21
74.756316102300005
 31
0.0
  0
LINE
  5
20E
  8
BOTTOM_TAPE
 10
75.382428116400007
 20
63.229598771100001
 30
0.0
 11
75.382428116400007
 21
74.756316102300005
 31
0.0
  0
POLYLINE
  5
216
  8
BOTTOM_TAPE
 66
     1
 10
0.0
 20
0.0
 30
0.0
 70
   128
 40
0.5
 41
0.5
  0
VERTEX
  5
3A1
  8
BOTTOM_TAPE
 10
82.382428116400035
 20
91.883272738813318
 30
0.0
  0
VERTEX
  5
3A2
  8
BOTTOM_TAPE
 10
79.382428116400007
 20
74.756316102300005
 30
0.0
  0
SEQEND
  5
3A3
  8
BOTTOM_TAPE
  0
POLYLINE
  5
218
  8
BOTTOM_TAPE
 66
     1
 10
0.0
 20
0.0
 30
0.0
 70
   128
 40
0.5
 41
0.5
  0
VERTEX
  5
3A4
  8
BOTTOM_TAPE
 10
82.382428116400007
 20
74.756316102300005
 30
0.0
  0
VERTEX
  5
3A5
  8
BOTTOM_TAPE
 10
82.382428116400007
 20
63.229598771100001
 30
0.0
  0
SEQEND
  5
3A6
  8
BOTTOM_TAPE
  0
POLYLINE
  5
219
  8
BOTTOM_TAPE
 66
     1
 10
0.0
 20
0.0
 30
0.0
 70
   128
 40
0.5
 41
0.5
  0
VERTEX
  5
3A7
  8
BOTTOM_TAPE
 10
79.382428116400007
 20
74.756316102300005
 30
0.0
  0
VERTEX
  5
3A8
  8
BOTTOM_TAPE
 10
79.382428116400007
 20
63.229598771100001
 30
0.0
  0
SEQEND
  5
3A9
  8
BOTTOM_TAPE
  0
LINE
  5
21B
  8
BOTTOM_TAPE
 10
79.382428116400007
 20
63.229598771100001
 30
0.0
 11
79.382428116400007
 21
74.756316102300005
 31
0.0
  0
POLYLINE
  5
230
  8
BOTTOM_TAPE
 66
     1
 10
0.0
 20
0.0
 30
0.0
 70
   128
 40
0.5
 41
0.5
  0
VERTEX
  5
3AA
  8
BOTTOM_TAPE
 10
68.382428116400035
 20
91.754653944790334
 30
0.0
  0
VERTEX
  5
3AB
  8
BOTTOM_TAPE
 10
68.382428116400035
 20
113.7950211745742
 30
0.0
  0
VERTEX
  5
3AC
  8
BOTTOM_TAPE
 10
63.670755511354542
 20
159.35387441502789
 30
0.0
 42
-0.3941763019937613
  0
VERTEX
  5
3AD
  8
BOTTOM_TAPE
 10
80.554450208465482
 20
181.6604265897208
 30
0.0
  0
VERTEX
  5
3AE
  8
BOTTOM_TAPE
 10
225.66472433352271
 20
206.8603808395695
 30
0.0
 42
0.2506920523837768
  0
VERTEX
  5
3AF
  8
BOTTOM_TAPE
 10
229.75385919937909
 20
210.05503519003241
 30
0.0
  0
VERTEX
  5
3B0
  8
BOTTOM_TAPE
 10
232.60287047285499
 20
216.4981551276156
 30
0.0
 42
-0.4142135623705075
  0
VERTEX
  5
3B1
  8
BOTTOM_TAPE
 10
258.32310478977558
 20
226.44649904386461
 30
0.0
  0
VERTEX
  5
3B2
  8
BOTTOM_TAPE
 10
285.76047266159702
 20
214.31427565881049
 30
0.0
 42
-0.4142135623729847
  0
VERTEX
  5
3B3
  8
BOTTOM_TAPE
 10
295.70881657800709
 20
188.59404134182699
 30
0.0
  0
VERTEX
  5
3B4
  8
BOTTOM_TAPE
 10
246.78601666771209
 20
77.953739407286619
 30
0.0
  0
SEQEND
  5
3B5
  8
BOTTOM_TAPE
  0
POLYLINE
  5
231
  8
BOTTOM_TAPE
 66
     1
 10
0.0
 20
0.0
 30
0.0
 70
   128
 40
0.5
 41
0.5
  0
VERTEX
  5
3B6
  8
BOTTOM_TAPE
 10
67.382428116400035
 20
91.754653944790334
 30
0.0
  0
VERTEX
  5
3B7
  8
BOTTOM_TAPE
 10
67.382428116400035
 20
113.74344896992579
 30
0.0
  0
VERTEX
  5
3B8
  8
BOTTOM_TAPE
 10
62.67606078554229
 20
159.25100361041709
 30
0.0
 42
-0.39417630199376
  0
VERTEX
  5
3B9
  8
BOTTOM_TAPE
 10
80.383350345926942
 20
182.6456802814364
 30
0.0
  0
VERTEX
  5
3BA
  8
BOTTOM_TAPE
 10
225.4936244709842
 20
207.8456345312851
 30
0.0
 42
0.2506920523837754
  0
VERTEX
  5
3BB
  8
BOTTOM_TAPE
 10
228.83928027032121
 20
210.4594426362093
 30
0.0
  0
VERTEX
  5
3BC
  8
BOTTOM_TAPE
 10
231.68829154379711
 20
216.90256257379249
 30
0.0
 42
-0.4142135623705073
  0
VERTEX
  5
3BD
  8
BOTTOM_TAPE
 10
258.72751223594452
 20
227.3610779729261
 30
0.0
  0
VERTEX
  5
3BE
  8
BOTTOM_TAPE
 10
286.1648801077659
 20
215.22885458787189
 30
0.0
 42
-0.414213562372984
  0
VERTEX
  5
3BF
  8
BOTTOM_TAPE
 10
296.62339550706872
 20
188.1896338956586
 30
0.0
  0
VERTEX
  5
3C0
  8
BOTTOM_TAPE
 10
247.7005955967737
 20
77.54933196111817
 30
0.0
  0
SEQEND
  5
3C1
  8
BOTTOM_TAPE
  0
POLYLINE
  5
232
  8
BOTTOM_TAPE
 66
     1
 10
0.0
 20
0.0
 30
0.0
 70
   128
 40
0.5
 41
0.5
  0
VERTEX
  5
3C2
  8
BOTTOM_TAPE
 10
66.382428116400035
 20
91.754653944790334
 30
0.0
  0
VERTEX
  5
3C3
  8
BOTTOM_TAPE
 10
66.382428116400035
 20
113.6918767652774
 30
0.0
  0
VERTEX
  5
3C4
  8
BOTTOM_TAPE
 10
61.681366059730067
 20
159.1481328058062
 30
0.0
 42
-0.394176301993761
  0
VERTEX
  5
3C5
  8
BOTTOM_TAPE
 10
80.212250483388388
 20
183.630933973152
 30
0.0
  0
VERTEX
  5
3C6
  8
BOTTOM_TAPE
 10
225.3225246084456
 20
208.8308882230007
 30
0.0
 42
0.2506920523837695
  0
VERTEX
  5
3C7
  8
BOTTOM_TAPE
 10
227.9247013412633
 20
210.86385008238619
 30
0.0
  0
VERTEX
  5
3C8
  8
BOTTOM_TAPE
 10
230.7737126147392
 20
217.30697001996941
 30
0.0
 42
-0.4142135623705059
  0
VERTEX
  5
3C9
  8
BOTTOM_TAPE
 10
259.13191968211328
 20
228.27565690198759
 30
0.0
  0
VERTEX
  5
3CA
  8
BOTTOM_TAPE
 10
286.56928755393471
 20
216.14343351693341
 30
0.0
 42
-0.4142135623729846
  0
VERTEX
  5
3CB
  8
BOTTOM_TAPE
 10
297.5379744361303
 20
187.7852264494901
 30
0.0
  0
VERTEX
  5
3CC
  8
BOTTOM_TAPE
 10
248.61517452583541
 20
77.144924514949722
 30
0.0
  0
SEQEND
  5
3CD
  8
BOTTOM_TAPE
  0
POLYLINE
  5
233
  8
BOTTOM_TAPE
 66
     1
 10
0.0
 20
0.0
 30
0.0
 70
   128
 40
4.5
 41
4.5
  0
VERTEX
  5
3CE
  8
BOTTOM_TAPE
 10
71.382428116400035
 20
91.883272738813318
 30
0.0
  0
VERTEX
  5
3CF
  8
BOTTOM_TAPE
 10
71.382428116400035
 20
113.9497377885198
 30
0.0
  0
VERTEX
  5
3D0
  8
BOTTOM_TAPE
 10
66.654839688791284
 20
159.66248682886049
 30
0.0
 42
-0.3941763019937613
  0
VERTEX
  5
3D1
  8
BOTTOM_TAPE
 10
81.067749796081159
 20
178.70466551457389
 30
0.0
  0
VERTEX
  5
3D2
  8
BOTTOM_TAPE
 10
226.17802392113839
 20
203.90461976442251
 30
0.0
 42
0.2506920523837698
  0
VERTEX
  5
3D3
  8
BOTTOM_TAPE
 10
232.4975959865528
 20
208.8418128515018
 30
0.0
  0
VERTEX
  5
3D4
  8
BOTTOM_TAPE
 10
235.34660726002869
 20
215.28493278908491
 30
0.0
 42
-0.4142135623705071
  0
VERTEX
  5
3D5
  8
BOTTOM_TAPE
 10
257.10988245126919
 20
223.70276225668019
 30
0.0
  0
VERTEX
  5
3D6
  8
BOTTOM_TAPE
 10
284.54725032309062
 20
211.5705388716261
 30
0.0
 42
-0.4142135623729837
  0
VERTEX
  5
3D7
  8
BOTTOM_TAPE
 10
292.96507979082207
 20
189.8072636803324
 30
0.0
  0
VERTEX
  5
3D8
  8
BOTTOM_TAPE
 10
244.04227988052719
 20
79.166961745791966
 30
0.0
  0
SEQEND
  5
3D9
  8
BOTTOM_TAPE
  0
POLYLINE
  5
237
  8
TOP_TAPE
 66
     1
 10
0.0
 20
0.0
 30
0.0
 70
   128
 40
0.5
 41
0.5
  0
VERTEX
  5
3DA
  8
TOP_TAPE
 10
84.382428116400021
 20
91.736396238027609
 30
0.0
  0
VERTEX
  5
3DB
  8
TOP_TAPE
 10
80.382428116400007
 20
74.756316102300005
 30
0.0
  0
SEQEND
  5
3DC
  8
TOP_TAPE
  0
POLYLINE
  5
239
  8
BOTTOM_TAPE
 66
     1
 10
0.0
 20
0.0
 30
0.0
 70
   128
 40
0.5
 41
0.5
  0
VERTEX
  5
3DD
  8
BOTTOM_TAPE
 10
84.382428116400035
 20
91.736396238027609
 30
0.0
  0
VERTEX
  5
3DE
  8
BOTTOM_TAPE
 10
82.382428116400007
 20
74.756316102300005
 30
0.0
  0
SEQEND
  5
3DF
  8
BOTTOM_TAPE
  0
ENDSEC
  0
EOF
